<?xml version="1.0" standalone="no"?>
<!DOCTYPE svg PUBLIC "-//W3C//DTD SVG 1.1//EN" "http://www.w3.org/Graphics/SVG/1.1/DTD/svg11.dtd" >
<svg xmlns="http://www.w3.org/2000/svg" xmlns:xlink="http://www.w3.org/1999/xlink" version="1.1">
<metadata>
Created by FontForge 20201107 at Thu Jul 20 16:31:18 2023
 By 
Copyright 2016 The Oswald Project Authors (https://github.com/googlefonts/OswaldFont)
</metadata>
<defs>
<font id="Oswald-Bold" horiz-adv-x="586" >
  <font-face 
    font-family="Oswald"
    font-weight="700"
    font-stretch="normal"
    units-per-em="1000"
    panose-1="0 0 0 0 0 0 0 0 0 0"
    ascent="800"
    descent="-200"
    x-height="578"
    cap-height="810"
    bbox="-223 -357 1390 1318"
    underline-thickness="50"
    underline-position="-125"
    unicode-range="U+000D-FB02"
  />
<missing-glyph horiz-adv-x="667" 
d="M82 0v810h502v-810h-502zM185 90h296v630h-296v-630z" />
    <glyph glyph-name="fi" unicode="fi" horiz-adv-x="551" 
d="M69 0v468h-55v110h55v43q0 52 13.5 90t47 59t93.5 21q16 0 33.5 -1.5t36.5 -4.5v-111q-5 1 -11 1.5t-12 0.5q-17 0 -27.5 -10t-10.5 -39v-49h269v-578h-161v468h-108v-468h-163zM350 676v113h151v-113h-151z" />
    <glyph glyph-name="fl" unicode="fl" horiz-adv-x="551" 
d="M66 0v464h-56v114h56v43q0 33 6 65.5t28 60t68.5 44t127.5 16.5q42 0 94.5 -5t116.5 -17v-785h-162v696q-10 2 -19 2h-17q-38 0 -55 -10.5t-21.5 -28t-4.5 -39.5v-20.5v-21.5h62v-114h-62v-464h-162z" />
    <glyph glyph-name="f_f" unicode="ff" horiz-adv-x="608" 
d="M72 0v468h-55v110h55v43q0 51 10.5 89t44 59t103.5 21q19 0 37.5 -1t40.5 -4v-121q-7 2 -16.5 3.5t-18.5 1.5q-18 0 -28 -10.5t-10 -34.5v-46h73v-110h-73v-468h-163zM360 0v468h-55v110h55v43q0 51 10.5 89t44 59t103.5 21q19 0 37.5 -1t40.5 -4v-121q-7 2 -16.5 3.5
t-18.5 1.5q-18 0 -28 -10.5t-10 -34.5v-46h73v-110h-73v-468h-163z" />
    <glyph glyph-name="f_f_i" unicode="ffi" horiz-adv-x="803" 
d="M66 0v470h-56v108h56v43q0 51 10.5 89t44.5 59t104 21q18 0 31.5 -1t34.5 -4v-121q-7 2 -15 3t-15 1q-16 0 -24.5 -10t-8.5 -34v-46h103v43q0 51 10.5 89t44.5 59t104 21q18 0 32.5 -1t36.5 -4v-121q-7 2 -15.5 3t-16.5 1q-16 0 -24.5 -10t-8.5 -34v-46h263v-578h-162
v470h-101v-470h-163v470h-103v-470h-162zM609 676v113h148v-113h-148z" />
    <glyph glyph-name="f_f_l" unicode="ffl" horiz-adv-x="858" 
d="M593 807q42 0 94.5 -5t116.5 -17v-785h-163v696q-10 2 -18.5 2h-16.5q-38 0 -55 -10.5t-21.5 -28t-4.5 -39.5v-42h62v-110h-62v-468h-163v468h-127v-468h-163v468h-55v110h55v43q0 51 10.5 89t44 59t103.5 21q19 0 37.5 -1t40.5 -4v-121q-7 2 -16.5 3.5t-18.5 1.5
q-18 0 -28 -10.5t-10 -34.5v-46h127v43q0 33 6 65.5t28 60t69 44t128 16.5z" />
    <glyph glyph-name=".notdef" horiz-adv-x="667" 
d="M82 0v810h502v-810h-502zM185 90h296v630h-296v-630z" />
    <glyph glyph-name=".null" horiz-adv-x="0" 
 />
    <glyph glyph-name="nonmarkingreturn" horiz-adv-x="333" 
 />
    <glyph glyph-name="CR" unicode="&#xd;" horiz-adv-x="256" 
 />
    <glyph glyph-name="space" unicode=" " horiz-adv-x="256" 
 />
    <glyph glyph-name="exclam" unicode="!" horiz-adv-x="257" 
d="M96 206l-47 602h162l-59 -602h-56zM46 0v152h154v-152h-154z" />
    <glyph glyph-name="quotedbl" unicode="&#x22;" horiz-adv-x="360" 
d="M25 509v301h139l-65 -301h-74zM209 509v301h139l-64 -301h-75z" />
    <glyph glyph-name="numbersign" unicode="#" horiz-adv-x="534" 
d="M71 0l31 269h-55l3 101h66l14 116h-79l2 104h95l25 220h106l-26 -220h78l25 220h105l-26 -220h53l-3 -104h-68l-13 -116h79l-3 -101h-90l-33 -269h-104l32 269h-78l-32 -269h-104zM220 370h79l14 116h-78z" />
    <glyph glyph-name="dollar" unicode="$" horiz-adv-x="485" 
d="M232 -110v99q-103 5 -154.5 66.5t-55.5 189.5l153 23q1 -52 9 -84t23.5 -46t37.5 -14q28 0 36.5 19t8.5 40q0 50 -23.5 84.5t-64.5 69.5l-71 61q-30 27 -54.5 55.5t-39.5 66t-15 89.5q0 95 54.5 149t146.5 61v95h51v-94q58 -3 93 -26.5t52.5 -58t24 -73t7.5 -71.5
l-155 -19q-1 36 -4.5 63t-14 41.5t-33.5 13.5q-25 0 -37 -21t-12 -42q0 -48 24.5 -77.5t53.5 -55.5l68 -59q34 -31 62.5 -66t45.5 -78t17 -99q0 -53 -22 -97t-63 -71.5t-98 -33.5v-100h-51z" />
    <glyph glyph-name="percent" unicode="%" horiz-adv-x="1006" 
d="M332 0l249 810h90l-248 -810h-91zM234 350q-103 0 -146 53.5t-43 161.5v36q0 110 42 160t147 50t147.5 -49t42.5 -159v-40q0 -107 -43 -160t-147 -53zM234 454q26 0 37.5 13.5t14.5 40t3 63.5v25q0 57 -7 83.5t-48 26.5q-40 0 -47.5 -26t-7.5 -83v-27q0 -37 3 -63
t15 -39.5t37 -13.5zM770 -1q-103 0 -145.5 53.5t-42.5 161.5v36q0 110 41.5 160t146.5 50t147.5 -49t42.5 -159v-39q0 -108 -43 -161t-147 -53zM770 103q26 0 37.5 13.5t14.5 39.5t3 63v27q0 57 -7 83t-48 26q-40 0 -47.5 -26t-7.5 -83v-27q0 -37 3 -63t15 -39.5t37 -13.5z
" />
    <glyph glyph-name="ampersand" unicode="&#x26;" horiz-adv-x="570" 
d="M231 -12q-56 0 -99.5 23.5t-68 67t-24.5 103.5q0 77 32.5 135t82.5 110q-20 36 -39 72.5t-30.5 73t-11.5 71.5q0 50 20.5 90t60 64t96.5 24q52 0 91 -21.5t61.5 -60.5t22.5 -90q0 -56 -22.5 -99t-54 -77.5t-60.5 -66.5l95 -178q9 16 15.5 45.5t10 63.5t4.5 60h110
q0 -59 -7.5 -104t-21 -82t-32.5 -72q10 -13 28.5 -22t37.5 -11v-119l-14 -2t-14 -1q-25 0 -48.5 10.5t-42.5 27t-33 33.5q-25 -32 -61.5 -50t-83.5 -18zM237 97q22 0 40.5 11.5t31.5 30.5l-99 183q-22 -35 -32 -67.5t-10 -65.5q0 -26 8 -47t23.5 -33t37.5 -12zM242 493
q14 19 27 47t21.5 58.5t8.5 54.5q0 26 -14 40t-33 14q-21 0 -34 -17t-13 -46q0 -41 12 -80.5t25 -70.5z" />
    <glyph glyph-name="quotesingle" unicode="'" horiz-adv-x="170" 
d="M25 509v301h133l-54 -301h-79z" />
    <glyph glyph-name="parenleft" unicode="(" horiz-adv-x="338" 
d="M303 -178q-66 -1 -110 25.5t-70.5 73.5t-39.5 109.5t-17 135.5t-4 150q0 83 4 158t17 138.5t39.5 109.5t70.5 71.5t110 25.5v-114q-28 0 -46 -26t-28 -75.5t-13.5 -121.5t-3.5 -166q0 -95 4 -166t14.5 -118.5t28 -71.5t44.5 -24v-114z" />
    <glyph glyph-name="parenright" unicode=")" horiz-adv-x="328" 
d="M35 -178v114q27 0 44.5 24t27.5 72t14 119t4 166q0 94 -3.5 166t-13 121.5t-27 75t-46.5 25.5v114q66 0 110 -25t70.5 -71.5t39.5 -109.5t17 -138t4 -158q0 -77 -4 -150t-17 -136t-39.5 -110t-70.5 -73.5t-110 -25.5z" />
    <glyph glyph-name="asterisk" unicode="*" horiz-adv-x="423" 
d="M170 450l-95 57l72 102l-107 41l36 97l97 -54l-13 117h122l-13 -117l98 54l36 -98l-108 -41l73 -101l-97 -57l-50 106z" />
    <glyph glyph-name="plus" unicode="+" horiz-adv-x="449" 
d="M170 207v160h-144v95h144v156h108v-156h145v-95h-145v-160h-108z" />
    <glyph glyph-name="comma" unicode="," horiz-adv-x="238" 
d="M68 -140l-10 53q26 7 48.5 25.5t22.5 61.5h-86v154h155v-133q-1 -74 -33 -115t-97 -46z" />
    <glyph glyph-name="hyphen" unicode="-" horiz-adv-x="324" 
d="M32 242v105h260v-105h-260z" />
    <glyph glyph-name="period" unicode="." horiz-adv-x="244" 
d="M46 0v154h154v-154h-154z" />
    <glyph glyph-name="slash" unicode="/" horiz-adv-x="422" 
d="M43 0l248 810h88l-249 -810h-87z" />
    <glyph glyph-name="zero" unicode="0" horiz-adv-x="550" 
d="M275 -15q-73 0 -122 29.5t-74 81.5t-25 121v367q0 71 23.5 124.5t72.5 83.5t125 30t124.5 -30t72 -83.5t23.5 -124.5v-367q0 -68 -25 -120.5t-74 -82t-121 -29.5zM275 134q24 0 34.5 15.5t13 36t2.5 35.5v359q0 17 -2 38.5t-12.5 38t-35.5 16.5t-35.5 -16.5t-12.5 -38
t-2 -38.5v-359q0 -15 3 -35.5t13.5 -36t33.5 -15.5z" />
    <glyph glyph-name="one" unicode="1" horiz-adv-x="385" 
d="M133 0v645q-11 -6 -25 -12t-29.5 -12.5t-30 -12.5t-26.5 -12v124q11 6 31 16.5t43 23.5t43 26.5t30 23.5h131v-810h-167z" />
    <glyph glyph-name="two" unicode="2" horiz-adv-x="514" 
d="M41 0v118l194 298q22 33 41.5 64t32 63t12.5 67t-14 52t-38 17q-27 0 -42 -15t-20.5 -40t-5.5 -56v-40h-162v43q0 72 23 128.5t73 89t131 32.5q109 0 164.5 -56.5t55.5 -157.5q0 -49 -15.5 -91t-41 -81.5t-54.5 -82.5l-148 -221h237v-131h-423z" />
    <glyph glyph-name="three" unicode="3" horiz-adv-x="514" 
d="M261 -15q-85 0 -133.5 32t-69 89.5t-20.5 132.5v29h167v-11v-18q0 -40 5 -65t18 -36.5t36 -11.5t34.5 12t15.5 36t4 60q0 60 -16.5 91.5t-68.5 32.5h-11h-20v115h14h13q53 0 71 29t18 90q0 47 -12.5 72t-46.5 25q-33 0 -43.5 -28t-10.5 -72v-20.5v-21.5h-167v49
q0 73 26.5 123.5t76 76.5t118.5 26q70 0 120 -25t77 -73.5t27 -120.5q0 -71 -29 -119t-70 -59q28 -10 50.5 -32t35.5 -59.5t13 -95.5q0 -74 -21.5 -131t-70.5 -89.5t-130 -32.5z" />
    <glyph glyph-name="four" unicode="4" horiz-adv-x="524" 
d="M274 0v182h-249v123l211 505h194v-504h75v-124h-75v-182h-156zM152 306h122v337z" />
    <glyph glyph-name="five" unicode="5" horiz-adv-x="509" 
d="M255 -15q-89 0 -134.5 31.5t-61.5 88.5t-16 132h161q0 -46 5 -75t18.5 -41.5t38.5 -11.5q26 1 37 21t13.5 57.5t2.5 90.5q0 40 -4.5 71t-18 49.5t-40.5 18.5q-25 0 -41 -18t-23 -56h-144l15 467h378v-140h-244l-9 -167q10 14 38 24.5t60 13.5q62 7 104.5 -22.5t64 -89.5
t21.5 -147q0 -65 -8 -119.5t-31 -94t-67 -61.5t-115 -22z" />
    <glyph glyph-name="six" unicode="6" horiz-adv-x="538" 
d="M276 -12q-79 0 -128.5 34.5t-72.5 94.5t-23 137v293q0 79 18.5 141t66.5 97.5t138 35.5q78 0 123 -24t64 -70t19 -114q0 -4 0.5 -7.5t0.5 -6.5h-157q0 49 -7.5 72.5t-41.5 23.5q-23 0 -34.5 -14t-15.5 -49t-4 -98v-72q12 21 39 32.5t61 12.5q64 2 102.5 -29t55.5 -84.5
t17 -119.5q0 -85 -20 -149.5t-68 -100.5t-133 -36zM278 111q23 0 33.5 15.5t14 46t3.5 75.5q0 40 -2.5 69t-13.5 45.5t-37 16.5q-12 0 -23 -5t-19 -12.5t-12 -14.5v-132q0 -27 4.5 -51t17 -38.5t34.5 -14.5z" />
    <glyph glyph-name="seven" unicode="7" horiz-adv-x="439" 
d="M65 0l176 683h-221v127h384v-115l-176 -695h-163z" />
    <glyph glyph-name="eight" unicode="8" horiz-adv-x="521" 
d="M260 -13q-82 0 -131 32.5t-70 90t-21 131.5q1 30 6.5 58.5t17 53t29 43t41.5 30.5q-31 23 -55 66.5t-26 110.5q-1 68 22.5 117t70.5 75t116 26q70 0 116.5 -26.5t69.5 -75t21 -116.5q-1 -68 -24 -111.5t-55 -65.5q24 -12 41.5 -30.5t29 -43t17.5 -53t6 -58.5
q2 -74 -19.5 -131.5t-70.5 -90t-132 -32.5zM260 110q27 0 39 20t15 47.5t3 50.5q1 31 -2.5 60t-15.5 47.5t-39 18.5q-26 0 -38 -18.5t-15.5 -47t-3.5 -60.5q0 -23 3 -51t15.5 -47.5t38.5 -19.5zM260 486q17 0 28 13.5t16.5 40.5t5.5 67q0 41 -12.5 65t-37.5 24t-38.5 -24
t-13.5 -64t5.5 -67.5t17.5 -41t29 -13.5z" />
    <glyph glyph-name="nine" unicode="9" horiz-adv-x="538" 
d="M261 -12q-78 0 -123 24t-64 70.5t-19 114.5v6.5v6.5h156q0 -49 8.5 -72.5t42.5 -23.5q23 0 34 14t14.5 49.5t3.5 97.5v72q-13 -21 -39.5 -32t-59.5 -13q-64 -1 -103 32t-56 89t-17 122q0 85 21.5 146.5t70.5 95.5t130 34q80 0 129 -32t71.5 -89.5t22.5 -135.5v-302
q0 -79 -18.5 -141t-66.5 -97.5t-138 -35.5zM263 430q20 0 32 11t19 21v132q0 28 -4 51.5t-15 38t-34 14.5q-22 0 -33 -15.5t-14.5 -46t-3.5 -75.5q0 -39 2.5 -68.5t13.5 -46t37 -16.5z" />
    <glyph glyph-name="colon" unicode=":" horiz-adv-x="278" 
d="M67 412v152h152v-152h-152zM67 56v152h152v-152h-152z" />
    <glyph glyph-name="semicolon" unicode=";" horiz-adv-x="285" 
d="M92 -117l-11 52q28 5 49.5 22t21.5 60h-84v153h153v-133q0 -73 -32 -113.5t-97 -40.5zM67 422v153h153v-153h-153z" />
    <glyph glyph-name="less" unicode="&#x3c;" horiz-adv-x="398" 
d="M364 195l-310 157v126l310 157v-141l-194 -78l194 -80v-141z" />
    <glyph glyph-name="equal" unicode="=" horiz-adv-x="442" 
d="M63 462v95h316v-95h-316zM63 272v95h316v-95h-316z" />
    <glyph glyph-name="greater" unicode="&#x3e;" horiz-adv-x="398" 
d="M54 195v141l194 80l-194 78v141l310 -157v-126z" />
    <glyph glyph-name="question" unicode="?" horiz-adv-x="483" 
d="M129 213v129q45 35 80.5 78t56.5 91.5t21 100.5q0 37 -13.5 53.5t-39.5 16.5q-23 0 -37 -14t-14 -39q0 -16 3.5 -28.5t8.5 -26.5l-147 -34q-8 24 -12.5 46.5t-4.5 47.5q0 88 53.5 137.5t153.5 49.5q101 0 155.5 -53t54.5 -151q0 -60 -20 -114t-58.5 -102t-93.5 -90v-98
h-147zM124 0v155h158v-155h-158z" />
    <glyph glyph-name="at" unicode="@" horiz-adv-x="950" 
d="M472 -126q-113 0 -196.5 32.5t-136.5 95t-73.5 150.5t-8.5 199q11 103 48 187.5t99.5 145t147.5 93.5t191 33q105 0 180.5 -32t121.5 -90t64 -135.5t9 -169.5q-4 -47 -20.5 -96.5t-47 -92t-77 -68.5t-109.5 -26q-27 0 -54 7.5t-47 24t-29 42.5q-12 -26 -37.5 -44.5
t-57.5 -21.5q-56 -4 -96 22.5t-59.5 75t-17.5 108.5q2 44 15.5 95.5t40.5 98t69.5 76t101.5 29.5q25 0 40 -13.5t22.5 -30t11.5 -26.5l10 64h130l-43 -327q-1 -11 -3 -31t0.5 -37t13.5 -21q20 -5 41.5 7t40.5 38.5t32 63.5t17 82q8 75 -3.5 135.5t-44.5 104.5t-89 67.5
t-138 23.5q-86 0 -149.5 -28.5t-106.5 -78t-67.5 -114.5t-32.5 -139q-8 -71 -2.5 -130.5t27 -106t60 -78.5t95.5 -49t133 -17q25 0 60 4.5t72 12t66 16.5l18 -99q-56 -13 -116 -22.5t-116 -9.5zM473 216q6 1 26 6.5t27 21.5l31 236q-1 8 -12 11t-18 3q-40 0 -66.5 -28
t-40 -69.5t-14.5 -83.5q0 -26 6.5 -48.5t21.5 -36t39 -12.5z" />
    <glyph glyph-name="A" unicode="A" horiz-adv-x="551" 
d="M21 0l153 810h204l151 -810h-165l-27 171h-119l-28 -171h-169zM234 278h86l-43 316z" />
    <glyph glyph-name="B" unicode="B" horiz-adv-x="588" 
d="M60 0v810h211q52 0 98.5 -8t82.5 -30.5t56.5 -64t20.5 -109.5q0 -49 -14.5 -82.5t-41 -53.5t-63.5 -27q47 -6 79 -30.5t48.5 -65.5t16.5 -99q0 -63 -16.5 -108.5t-47.5 -74.5t-76.5 -43t-104.5 -14h-249zM239 125h38q59 0 81.5 30t22.5 88q0 46 -10 73t-33 39.5t-62 12.5
h-37v-243zM239 486h35q41 0 62 12.5t28.5 36.5t7.5 58q0 32 -11.5 53.5t-34 32.5t-56.5 11h-31v-204z" />
    <glyph glyph-name="C" unicode="C" horiz-adv-x="563" 
d="M292 -12q-92 0 -145.5 33.5t-75.5 94t-22 142.5v292q0 84 22 144.5t75.5 93.5t145.5 33q90 0 140.5 -29.5t71.5 -82.5t21 -122v-70h-175v81q0 24 -2.5 46t-14.5 36.5t-41 14.5q-28 0 -41.5 -15t-17 -37.5t-3.5 -47.5v-381q0 -27 4.5 -49.5t18 -36t39.5 -13.5
q28 0 40 14.5t15 37.5t3 47v85h175v-70q0 -69 -20.5 -123.5t-71 -86t-141.5 -31.5z" />
    <glyph glyph-name="D" unicode="D" 
d="M60 0v810h205q106 0 165 -26.5t83 -83t24 -146.5v-294q0 -91 -24 -148.5t-82.5 -84.5t-163.5 -27h-207zM239 124h28q41 0 59 12t22.5 36t4.5 60v353q0 36 -5.5 58t-23.5 32t-58 10h-27v-561z" />
    <glyph glyph-name="E" unicode="E" horiz-adv-x="447" 
d="M60 0v810h364v-122h-185v-201h141v-124h-141v-242h187v-121h-366z" />
    <glyph glyph-name="F" unicode="F" horiz-adv-x="434" 
d="M60 0v810h350v-121h-171v-204h149v-125h-149v-360h-179z" />
    <glyph glyph-name="G" unicode="G" horiz-adv-x="582" 
d="M271 -12q-84 0 -132.5 35t-69 98.5t-20.5 146.5v272q0 86 22 149t75.5 97.5t145.5 34.5q90 0 141.5 -30t73.5 -83t22 -124v-52h-175v66q0 26 -3.5 48t-16 35.5t-40.5 13.5q-29 0 -42 -15.5t-16.5 -38.5t-3.5 -48v-375q0 -27 5.5 -50.5t20 -38t41.5 -14.5q28 0 43 15
t21 39t6 51v95h-73v105h234v-420h-118l-10 67q-16 -34 -47 -56.5t-84 -22.5z" />
    <glyph glyph-name="H" unicode="H" horiz-adv-x="610" 
d="M63 0v810h179v-328h126v328h179v-810h-179v354h-126v-354h-179z" />
    <glyph glyph-name="I" unicode="I" horiz-adv-x="301" 
d="M61 0v810h179v-810h-179z" />
    <glyph glyph-name="J" unicode="J" horiz-adv-x="349" 
d="M13 -21v125q27 0 46 3t30 11.5t16 25t5 42.5v624h179v-632q0 -66 -16.5 -110.5t-57.5 -66.5t-115 -22h-87z" />
    <glyph glyph-name="K" unicode="K" horiz-adv-x="567" 
d="M60 0v810h179v-331l136 331h175l-150 -366l157 -444h-182l-117 358l-19 -32v-326h-179z" />
    <glyph glyph-name="L" unicode="L" horiz-adv-x="443" 
d="M60 0v810h179v-689h186v-121h-365z" />
    <glyph glyph-name="M" unicode="M" horiz-adv-x="704" 
d="M57 0l14 810h192l89 -471l96 471h185l14 -810h-127l-15 539l-94 -539h-113l-100 543l-12 -543h-129z" />
    <glyph glyph-name="N" unicode="N" horiz-adv-x="561" 
d="M60 0v810h126l166 -390v390h148v-810h-121l-166 420v-420h-153z" />
    <glyph glyph-name="O" unicode="O" 
d="M292 -12q-91 0 -144 32t-76 92t-23 143v301q0 84 23 143t76 90.5t144 31.5q92 0 145.5 -31.5t76.5 -90.5t23 -143v-301q0 -83 -23 -143t-76.5 -92t-145.5 -32zM292 115q28 0 41 14t17 36t4 45v390q0 24 -4 45.5t-17 35.5t-41 14q-26 0 -39 -14t-17 -35.5t-4 -45.5v-390
q0 -23 3.5 -45t16 -36t40.5 -14z" />
    <glyph glyph-name="P" unicode="P" horiz-adv-x="571" 
d="M60 0v810h272q73 0 120 -27.5t70 -80t23 -127.5q0 -94 -31 -143.5t-84 -68.5t-119 -19h-72v-344h-179zM239 469h60q33 0 50 12t22.5 36t5.5 61q0 31 -4.5 54.5t-21.5 37.5t-53 14h-59v-215z" />
    <glyph glyph-name="Q" unicode="Q" 
d="M475 -159q-22 10 -53 32.5t-61.5 53t-51.5 62.5q-4 -1 -8 -1h-9q-91 0 -144 32t-76 92t-23 143v301q0 84 23 143t76 90.5t144 31.5q92 0 145.5 -31.5t76.5 -90.5t23 -143v-301q0 -57 -10.5 -103t-34 -80t-62.5 -54q13 -14 27 -27.5t28 -25t28 -18.5zM292 115q28 0 41 14
t17 36t4 45v390q0 24 -4 45.5t-17 35.5t-41 14t-40.5 -14t-16 -35.5t-3.5 -45.5v-390q0 -23 3.5 -45t16 -36t40.5 -14z" />
    <glyph glyph-name="R" unicode="R" horiz-adv-x="600" 
d="M60 0v810h223q82 0 142 -18t93.5 -64.5t33.5 -131.5q0 -50 -8 -89t-29.5 -67.5t-61.5 -47.5l111 -392h-185l-89 363h-51v-363h-179zM239 466h50q38 0 59 13.5t29.5 39t8.5 61.5q0 52 -19 81t-70 29h-58v-224z" />
    <glyph glyph-name="S" unicode="S" horiz-adv-x="514" 
d="M275 -12q-76 0 -127 27t-77 83.5t-29 146.5l153 23q1 -52 9.5 -84t24 -46t37.5 -14q28 0 36.5 19t8.5 40q0 50 -24 84.5t-65 69.5l-70 61q-46 39 -77.5 88.5t-31.5 122.5q0 103 61 157.5t166 54.5q65 0 104.5 -22t60 -57.5t28 -75t8.5 -75.5l-154 -19q-1 36 -4.5 62.5
t-14.5 41t-34 14.5q-25 0 -36.5 -21t-11.5 -42q0 -45 21.5 -73.5t56.5 -59.5l67 -59q53 -45 89.5 -102t36.5 -141q0 -57 -26 -103.5t-73.5 -73.5t-112.5 -27z" />
    <glyph glyph-name="T" unicode="T" horiz-adv-x="445" 
d="M133 0v677h-122v133h423v-133h-121v-677h-180z" />
    <glyph glyph-name="U" unicode="U" horiz-adv-x="588" 
d="M294 -12q-93 0 -145.5 30.5t-73.5 89t-21 143.5v559h177v-586q0 -25 4 -50t17.5 -41t41.5 -16q29 0 42 16t16.5 41t3.5 50v586h178v-559q0 -85 -21.5 -143.5t-73.5 -89t-145 -30.5z" />
    <glyph glyph-name="V" unicode="V" horiz-adv-x="526" 
d="M168 0l-146 810h153l87 -550l81 550h162l-148 -810h-189z" />
    <glyph glyph-name="W" unicode="W" horiz-adv-x="697" 
d="M125 0l-98 810h152l48 -472l61 471h119l64 -468l49 469h150l-97 -810h-156l-69 489l-65 -489h-158z" />
    <glyph glyph-name="X" unicode="X" horiz-adv-x="515" 
d="M7 0l157 436l-150 374h169l89 -219l72 219h149l-142 -421l158 -389h-168l-99 242l-87 -242h-148z" />
    <glyph glyph-name="Y" unicode="Y" horiz-adv-x="493" 
d="M162 0v331l-154 479h169l77 -256l69 256h162l-151 -479v-331h-172z" />
    <glyph glyph-name="Z" unicode="Z" horiz-adv-x="433" 
d="M29 0v108l198 581h-189v121h365v-101l-201 -588h203v-121h-376z" />
    <glyph glyph-name="bracketleft" unicode="[" horiz-adv-x="332" 
d="M51 -185v995h252v-63h-124v-869h123v-63h-251z" />
    <glyph glyph-name="backslash" unicode="\" horiz-adv-x="422" 
d="M292 0l-249 810h88l248 -810h-87z" />
    <glyph glyph-name="bracketright" unicode="]" horiz-adv-x="324" 
d="M22 -185v63h123v869h-124v63h252v-995h-251z" />
    <glyph glyph-name="asciicircum" unicode="^" horiz-adv-x="476" 
d="M30 475l143 335h129l144 -335h-138l-70 195l-71 -195h-137z" />
    <glyph glyph-name="underscore" unicode="_" horiz-adv-x="368" 
d="M0 -167v109h368v-109h-368z" />
    <glyph glyph-name="grave" unicode="`" horiz-adv-x="307" 
d="M166 608l-125 202h166l61 -202h-102z" />
    <glyph glyph-name="a" unicode="a" horiz-adv-x="460" 
d="M154 -10q-44 0 -74 21t-45 53.5t-15 66.5q0 54 21.5 91t56.5 62t77 42.5t83 31.5v58q0 15 -3 26.5t-10 18t-21 6.5t-21.5 -6t-10.5 -16.5t-4 -23.5l-4 -42l-152 6q5 104 55.5 153.5t151.5 49.5q88 0 131.5 -48.5t43.5 -125.5v-270q0 -36 1.5 -63t4 -47t4.5 -34h-146
q-3 23 -7 50t-6 32q-10 -36 -37.5 -64t-73.5 -28zM212 100q10 0 18.5 4t15.5 11t12 14v158q-20 -12 -37 -24.5t-29 -27.5t-18.5 -32.5t-6.5 -39.5q0 -29 12 -46t33 -17z" />
    <glyph glyph-name="b" unicode="b" horiz-adv-x="506" 
d="M338 -10q-32 0 -63.5 14.5t-60.5 39.5v-44h-163v810h163v-274q30 26 62.5 39t63.5 13q33 0 56.5 -13t38.5 -36.5t22 -54.5t7 -66v-249q0 -54 -14.5 -94t-42.5 -62.5t-69 -22.5zM259 95q16 0 25 9t13 23.5t4 32.5v270q0 17 -4 30.5t-12.5 21.5t-23.5 8q-13 0 -24.5 -5.5
t-22.5 -13.5v-360q11 -7 22.5 -11.5t22.5 -4.5z" />
    <glyph glyph-name="c" unicode="c" horiz-adv-x="468" 
d="M239 -10q-63 0 -107.5 23t-68.5 66t-24 104v212q0 62 24 105t68.5 65.5t107.5 22.5q62 0 105.5 -19t66.5 -57.5t23 -97.5v-61h-157v66q0 23 -4.5 35.5t-13 17.5t-20.5 5t-20 -6.5t-12 -21t-4 -40.5v-240q0 -39 9.5 -53t27.5 -14q13 0 21 5.5t12 18t4 33.5v77h157v-70
q0 -58 -23.5 -97.5t-67 -59t-104.5 -19.5z" />
    <glyph glyph-name="d" unicode="d" horiz-adv-x="503" 
d="M176 -10q-64 0 -99 45t-35 133v239q0 54 15 94.5t45 63.5t74 23q32 0 61 -12.5t53 -33.5v268h163v-810h-163v45q-27 -26 -56 -40.5t-58 -14.5zM247 94q8 0 19.5 4t23.5 11v365q-10 5 -21 9t-21 4q-22 0 -32 -18.5t-10 -44.5v-266q0 -18 4 -32.5t13 -23t24 -8.5z" />
    <glyph glyph-name="e" unicode="e" horiz-adv-x="470" 
d="M240 -10q-63 0 -108 22.5t-69 66t-24 104.5v212q0 62 24 105t69.5 65.5t107.5 22.5q64 0 106.5 -22t64 -65t21.5 -106v-116h-232v-111q0 -22 5 -36t14 -20t21 -6t21.5 5.5t15 17.5t5.5 33v61h150v-56q0 -88 -51 -132.5t-141 -44.5zM200 355h82v58q0 23 -5.5 36t-15 18
t-22.5 5q-12 0 -20.5 -6t-13.5 -20.5t-5 -41.5v-49z" />
    <glyph glyph-name="f" unicode="f" horiz-adv-x="320" 
d="M72 0v468h-55v110h55v43q0 51 10.5 89t44 59t103.5 21q19 0 37.5 -1t40.5 -4v-121q-7 2 -16.5 3.5t-18.5 1.5q-18 0 -28 -10.5t-10 -34.5v-46h73v-110h-73v-468h-163z" />
    <glyph glyph-name="g" unicode="g" horiz-adv-x="502" 
d="M240 -200q-65 0 -113.5 13t-75 39t-26.5 65q0 30 13.5 53.5t38 40.5t55.5 29l63 -11q-11 -9 -20.5 -18.5t-15.5 -20t-6 -24.5q0 -22 25 -33t83 -11q48 0 74.5 8.5t26.5 33.5q0 14 -7 22t-23 13t-44 8l-144 18q-46 6 -73 33t-27 67q0 35 21.5 65t56.5 59l57 -32
q-12 -12 -19 -22.5t-7 -23.5q0 -12 12 -19t43 -11l137 -18q74 -9 108.5 -49t34.5 -103q0 -56 -24.5 -94t-79 -57.5t-144.5 -19.5zM250 187q-68 0 -114.5 24t-70 68.5t-23.5 107.5q0 65 24 110t70.5 68t113.5 23q64 0 108 -24t67.5 -68.5t23.5 -108.5q0 -63 -22.5 -107.5
t-66.5 -68.5t-110 -24zM250 284q14 0 22.5 5.5t13 17.5t6.5 32t2 48q0 29 -2 48.5t-6.5 32t-13 18t-22.5 5.5q-13 0 -22 -5.5t-14 -17.5t-7 -32t-2 -49q0 -28 2 -47.5t6.5 -32t13.5 -18t23 -5.5zM414 487l-34 44q15 29 37.5 46.5t60.5 35.5l39 -78q-10 -3 -29.5 -11.5
t-40 -18.5t-33.5 -18z" />
    <glyph glyph-name="h" unicode="h" horiz-adv-x="509" 
d="M52 0v810h162v-283q32 32 67 46.5t75 14.5q35 0 58.5 -17.5t35.5 -48t12 -69.5v-453h-162v430q0 21 -7 32t-26 11q-10 0 -24 -5.5t-29 -15.5v-452h-162z" />
    <glyph glyph-name="i" unicode="i" horiz-adv-x="265" 
d="M52 0v578h163v-578h-163zM51 676v113h164v-113h-164z" />
    <glyph glyph-name="j" unicode="j" horiz-adv-x="269" 
d="M70 -180q-22 0 -44.5 3.5t-42.5 9.5v117q8 -1 15.5 -2.5t13.5 -1.5q14 0 24 5t15.5 15.5t5.5 28.5v583h162v-603q0 -68 -37.5 -111.5t-111.5 -43.5zM56 676v113h164v-113h-164z" />
    <glyph glyph-name="k" unicode="k" horiz-adv-x="510" 
d="M51 0v810h157v-449l118 217h181l-139 -237l138 -341h-176l-86 275l-36 -55v-220h-157z" />
    <glyph glyph-name="l" unicode="l" horiz-adv-x="274" 
d="M58 0v810h162v-810h-162z" />
    <glyph glyph-name="m" unicode="m" horiz-adv-x="753" 
d="M51 0v578h160v-46q32 31 66.5 44t70.5 13q35 0 60.5 -17.5t38.5 -51.5q34 38 71.5 53.5t75.5 15.5q34 0 59 -16.5t39 -48t14 -75.5v-449h-160v432q0 24 -8.5 34.5t-25.5 10.5q-10 0 -25 -5.5t-29 -15.5v-3.5v-3.5v-449h-158v432q0 24 -9 34.5t-26 10.5q-11 0 -25.5 -5.5
t-28.5 -15.5v-456h-160z" />
    <glyph glyph-name="n" unicode="n" horiz-adv-x="507" 
d="M51 0v578h163v-58q32 32 66.5 50t72.5 18q36 0 59.5 -17.5t35.5 -48t12 -69.5v-453h-162v430q0 21 -7 32t-26 11q-10 0 -23.5 -5.5t-27.5 -15.5v-452h-163z" />
    <glyph glyph-name="o" unicode="o" horiz-adv-x="483" 
d="M241 -10q-62 0 -107.5 21t-70 63t-24.5 105v220q0 63 24.5 105t70 63t107.5 21t107.5 -21t70.5 -63t25 -105v-220q0 -63 -25 -105t-70.5 -63t-107.5 -21zM242 98q16 0 25 8.5t12.5 24t3.5 37.5v242q0 22 -3.5 37.5t-12.5 24t-25 8.5t-25 -8.5t-13 -24t-4 -37.5v-242
q0 -22 4 -37.5t13 -24t25 -8.5z" />
    <glyph glyph-name="p" unicode="p" horiz-adv-x="505" 
d="M51 -190v768h163v-42q29 26 62 39t63 13q33 0 56.5 -13t38.5 -36.5t22 -54.5t7 -66v-249q0 -54 -14.5 -94t-42.5 -62.5t-69 -22.5q-31 0 -62.5 14.5t-60.5 39.5v-234h-163zM257 95q16 0 25 9t13.5 23.5t4.5 32.5v270q0 17 -4 30.5t-13 21.5t-23 8q-13 0 -24.5 -5.5
t-21.5 -14.5v-360q11 -7 21.5 -11t21.5 -4z" />
    <glyph glyph-name="q" unicode="q" horiz-adv-x="504" 
d="M292 -190v238q-28 -27 -57 -42.5t-59 -15.5q-65 0 -99.5 45t-34.5 133v239q0 54 15 94.5t45 63.5t74 23q33 0 62 -13t54 -36v39h163v-768h-163zM248 94q9 0 20.5 4.5t23.5 11.5v362q-10 7 -21 11t-22 4q-23 0 -33.5 -18.5t-10.5 -44.5v-266q0 -18 4.5 -32.5t14 -23
t24.5 -8.5z" />
    <glyph glyph-name="r" unicode="r" horiz-adv-x="383" 
d="M53 0v578h163v-96q28 50 56 76.5t68 26.5q8 0 14 -0.5t11 -2.5v-162q-11 5 -24.5 8.5t-28.5 3.5q-28 0 -52 -15t-44 -41v-376h-163z" />
    <glyph glyph-name="s" unicode="s" horiz-adv-x="424" 
d="M229 -10q-76 0 -126.5 34t-82.5 111l111 49q16 -39 37.5 -61.5t47.5 -22.5q19 0 28.5 8t9.5 22q0 23 -17.5 42t-62.5 56l-42 35q-46 39 -72.5 75.5t-26.5 90.5q0 47 24.5 83t65.5 56t88 20q72 0 120 -39t68 -110l-107 -48q-6 19 -17 38t-26 32t-34 13q-16 0 -25.5 -9
t-9.5 -24q0 -19 21.5 -41t59.5 -53l41 -36q25 -21 49 -45t39.5 -53t15.5 -66q0 -50 -25 -85.5t-65.5 -53.5t-86.5 -18z" />
    <glyph glyph-name="t" unicode="t" horiz-adv-x="351" 
d="M232 -6q-65 0 -100 19t-48.5 55.5t-13.5 88.5v314h-56v107h56v176h165v-176h82v-107h-82v-298q0 -25 14.5 -36t36.5 -11q13 0 24 1.5t20 2.5v-128q-13 -2 -41 -5t-57 -3z" />
    <glyph glyph-name="u" unicode="u" horiz-adv-x="504" 
d="M153 -10q-35 0 -59.5 17.5t-36.5 48.5t-12 69v453h163v-434q0 -21 7.5 -32.5t26.5 -11.5q11 0 23 5.5t25 12.5v460h162v-578h-162v53q-31 -29 -65.5 -46t-71.5 -17z" />
    <glyph glyph-name="v" unicode="v" horiz-adv-x="421" 
d="M126 0l-116 578h156l48 -369l44 369h156l-119 -578h-169z" />
    <glyph glyph-name="w" unicode="w" horiz-adv-x="597" 
d="M106 0l-85 578h136l42 -328l45 328h118l39 -336l49 336h126l-86 -578h-140l-50 325l-56 -325h-138z" />
    <glyph glyph-name="x" unicode="x" horiz-adv-x="442" 
d="M11 0l123 317l-117 261h164l62 -139l55 139h125l-114 -285l131 -293h-166l-70 159l-58 -159h-135z" />
    <glyph glyph-name="y" unicode="y" horiz-adv-x="448" 
d="M67 -168v113q31 0 51.5 4t31 15t10.5 30q0 17 -6 41.5t-15 55.5l-136 487h153l73 -334l55 334h154l-133 -592q-13 -60 -41 -93.5t-68.5 -47t-91.5 -13.5h-37z" />
    <glyph glyph-name="z" unicode="z" horiz-adv-x="392" 
d="M35 0v105l159 354h-147v119h317v-99l-161 -360h163v-119h-331z" />
    <glyph glyph-name="braceleft" unicode="{" horiz-adv-x="374" 
d="M343 -193q-79 0 -125.5 11.5t-69 36.5t-29 66t-6.5 100v80q0 72 -3.5 105t-17 42.5t-44.5 9.5v118q31 0 44.5 9.5t17 43t3.5 104.5v80q0 60 6.5 101t29 66t69 36.5t125.5 11.5v-109q-26 0 -42 -4t-24 -15.5t-11 -34.5t-3 -61v-90q0 -85 -17 -135t-69 -62q52 -12 69 -61.5
t17 -134.5v-91q0 -38 3 -60.5t11 -34t24 -15.5t42 -4v-109z" />
    <glyph glyph-name="bar" unicode="|" horiz-adv-x="262" 
d="M64 -180v990h134v-990h-134z" />
    <glyph glyph-name="braceright" unicode="}" horiz-adv-x="379" 
d="M37 -193v109q26 0 42 4t24 15.5t11 34t3 60.5v91q0 85 17.5 134.5t69.5 61.5q-52 12 -69.5 62t-17.5 135v90q0 38 -3 61t-11 34.5t-24 15.5t-42 4v109q79 0 125.5 -11.5t69 -36.5t29 -66t6.5 -101v-80q0 -71 3.5 -104.5t17 -43t44.5 -9.5v-118q-31 0 -44.5 -9.5
t-17 -42.5t-3.5 -105v-80q0 -59 -6.5 -100t-29 -66t-69 -36.5t-125.5 -11.5z" />
    <glyph glyph-name="asciitilde" unicode="~" horiz-adv-x="481" 
d="M327 333q-28 0 -59.5 14.5t-60 29t-47.5 14.5q-11 0 -31 -12t-37 -36l-52 68q13 22 32.5 43t42 35.5t43.5 14.5q28 0 59.5 -14t59.5 -28.5t46 -14.5q14 0 33 14t35 33l57 -58q-11 -24 -31 -48t-43.5 -39.5t-46.5 -15.5z" />
    <glyph glyph-name="uni00A0" unicode="&#xa0;" horiz-adv-x="256" 
 />
    <glyph glyph-name="exclamdown" unicode="&#xa1;" horiz-adv-x="237" 
d="M37 -156l59 602h56l47 -602h-162zM48 500v152h154v-152h-154z" />
    <glyph glyph-name="cent" unicode="&#xa2;" horiz-adv-x="457" 
d="M212 -132v123q-55 5 -94 29t-59.5 65.5t-20.5 97.5v212q0 58 20.5 99t59.5 65t94 28v122h42v-121q57 -2 97 -22.5t61 -58t21 -93.5v-61h-158v62q0 24 -4.5 36.5t-12.5 17t-20 4.5t-20.5 -6t-13 -21t-4.5 -41v-232q0 -40 10.5 -53.5t27.5 -13.5q12 0 20 5.5t12.5 18
t4.5 33.5v73h158v-70q0 -55 -21 -93.5t-61 -59t-97 -23.5v-122h-42z" />
    <glyph glyph-name="sterling" unicode="&#xa3;" horiz-adv-x="490" 
d="M21 0v92l60 28v201h-60v127h60v91q0 59 6 110t25.5 89.5t58.5 60.5t106 22q76 0 115.5 -28.5t54 -78t14.5 -113.5v-12.5v-11.5h-143q0 30 -2 54.5t-10.5 38.5t-27.5 14t-27.5 -16t-10.5 -45t-2 -70v-106h119v-126h-119v-183h217v-138h-434z" />
    <glyph glyph-name="currency" unicode="&#xa4;" horiz-adv-x="555" 
d="M55 186l-15 15l80 79q-25 28 -40 65t-15 78t15 78t40 65l-80 79l15 15l79 -79q28 26 64.5 41t78.5 15t78.5 -15t64.5 -41l79 79l15 -15l-79 -79q25 -28 39 -65t14 -78t-14 -78t-40 -65l80 -79l-15 -15l-79 79q-28 -26 -64.5 -41.5t-78.5 -14.5q-42 -1 -78.5 14.5
t-64.5 41.5zM277 254q47 0 84 23t58.5 61.5t21.5 84.5q0 47 -21.5 85t-58.5 61t-84 23q-46 0 -83 -23t-58.5 -61t-21.5 -85q0 -46 21.5 -84.5t58.5 -61.5t83 -23z" />
    <glyph glyph-name="yen" unicode="&#xa5;" horiz-adv-x="475" 
d="M155 0v120h-84v80h84v66h-84v83h63l-133 461h168l78 -311l68 311h163l-131 -461h63v-83h-84v-66h84v-80h-84v-120h-171z" />
    <glyph glyph-name="brokenbar" unicode="&#xa6;" horiz-adv-x="217" 
d="M51 402v408h114v-408h-114zM51 -181v408h114v-408h-114z" />
    <glyph glyph-name="section" unicode="&#xa7;" horiz-adv-x="473" 
d="M233 -6q-53 0 -90 22t-60 59t-35 83l108 28q6 -16 17 -34.5t27 -31.5t36 -13q26 0 41 12.5t16 34.5q1 18 -7 33t-25.5 29.5t-46.5 32.5l-88 56q-34 21 -57.5 52t-20.5 77q4 44 29.5 73.5t57.5 39.5q-31 18 -60 53t-32 76q-2 52 23.5 88t70 55t97.5 19t91.5 -22
t63.5 -59.5t36 -85.5l-106 -26q-6 20 -15.5 39t-25 31t-39.5 11q-23 -1 -38 -12t-15 -34q0 -20 11.5 -34t27 -24t26.5 -18l75 -46q39 -24 66 -58.5t26 -81.5q0 -41 -22.5 -68t-56.5 -50q39 -32 61 -64.5t22 -77.5q0 -72 -49.5 -118t-139.5 -46zM257 361q14 8 26.5 19
t12.5 28q0 8 -6.5 21t-24.5 24l-49 29q-19 -5 -31 -17.5t-12 -29.5q0 -10 5 -20t15 -16z" />
    <glyph glyph-name="dieresis" unicode="&#xa8;" horiz-adv-x="425" 
d="M255 662v148h131v-148h-131zM39 662v148h130v-148h-130z" />
    <glyph glyph-name="copyright" unicode="&#xa9;" horiz-adv-x="884" 
d="M442 -13q-106 0 -182 36.5t-124 97.5t-70.5 135.5t-22.5 150.5q0 75 22.5 149.5t70.5 135t124 97t182 36.5t181.5 -36.5t123.5 -97t70.5 -135t22.5 -149.5q0 -76 -22.5 -150.5t-70 -135.5t-123 -97.5t-182.5 -36.5zM441 123q-51 0 -91.5 13t-68 37.5t-42 59.5t-14.5 79
v195q0 60 25.5 101.5t74 63.5t116.5 22q67 0 114 -18.5t72.5 -55.5t25.5 -94v-57h-170v58q0 23 -5 35.5t-14 17t-22 4.5q-14 0 -23.5 -6t-14 -21t-4.5 -41v-215q0 -26 5 -40.5t14.5 -20t22.5 -5.5q14 0 23 5.5t13.5 18t4.5 33.5v65h170v-63q0 -57 -25.5 -95t-73 -57
t-113.5 -19zM443 27q92 0 158.5 32t109.5 86t64 121.5t21 139.5t-21 139t-64 120.5t-109.5 85t-158.5 31.5t-159 -31.5t-110 -85t-63.5 -120.5t-20.5 -139t20.5 -139.5t63.5 -121.5t110 -86t159 -32z" />
    <glyph glyph-name="ordfeminine" unicode="&#xaa;" horiz-adv-x="440" 
d="M151 313q-56 0 -85.5 34t-29.5 86q0 43 19 73t51 50t71.5 35t80.5 28v54q0 17 -6 30t-23 13q-12 0 -19.5 -7t-11 -23t-6.5 -43l-141 4q2 90 52.5 132t137.5 42q56 0 92 -20t53.5 -55.5t17.5 -81.5v-342h-129l-9 67q-13 -31 -41 -53.5t-74 -22.5zM216 409q11 0 22.5 7
t19.5 19v128q-25 -11 -44 -29t-29 -38t-10 -38q0 -23 12 -36t29 -13z" />
    <glyph glyph-name="guillemotleft" unicode="&#xab;" horiz-adv-x="488" 
d="M450 37l-197 234v56l197 234v-156l-102 -106l102 -106v-156zM234 37l-197 234v56l197 234v-156l-102 -106l102 -106v-156z" />
    <glyph glyph-name="logicalnot" unicode="&#xac;" horiz-adv-x="499" 
d="M343 265v158h-297v109h405v-267h-108z" />
    <glyph glyph-name="registered" unicode="&#xae;" horiz-adv-x="890" 
d="M446 -14q-106 0 -181.5 36.5t-123.5 97.5t-70.5 135t-22.5 149q0 76 22.5 150t70.5 134.5t123.5 97t181.5 36.5t181.5 -36.5t123 -97t70 -134.5t22.5 -150q0 -75 -22.5 -149.5t-70 -135t-123 -97t-181.5 -36.5zM445 39q88 0 151.5 31t104.5 83.5t61 117.5t20 133
q0 69 -20 134t-61 117t-104.5 82.5t-151.5 30.5t-152 -30.5t-105.5 -82.5t-61 -117t-19.5 -134q0 -68 19.5 -133t61 -117.5t105.5 -83.5t152 -31zM277 153v507h166q58 0 98.5 -12.5t62.5 -42.5t22 -83q0 -47 -15 -76.5t-57 -49.5l88 -243h-138l-68 218h-28v-218h-131z
M408 436h22q43 0 58 21.5t15 55.5q0 32 -14 51t-48 19h-33v-147z" />
    <glyph glyph-name="macron" unicode="&#xaf;" horiz-adv-x="368" 
d="M57 733v77h254v-77h-254z" />
    <glyph glyph-name="degree" unicode="&#xb0;" horiz-adv-x="540" 
d="M269 424q-60 0 -105 25t-70 70t-25 104q0 60 25 104.5t70 69t105 24.5q61 0 106.5 -24.5t71 -69t25.5 -104.5t-25.5 -104.5t-71 -69.5t-106.5 -25zM269 513q48 0 73.5 31t25.5 79t-25.5 78.5t-73.5 30.5q-46 0 -72 -30t-26 -79q0 -48 26 -79t72 -31z" />
    <glyph glyph-name="plusminus" unicode="&#xb1;" horiz-adv-x="449" 
d="M26 158v95h397v-95h-397zM170 241v160h-144v95h144v156h108v-156h145v-95h-145v-160h-108z" />
    <glyph glyph-name="uni00B2" unicode="&#xb2;" horiz-adv-x="474" 
d="M81 433v80l115 116q30 30 48 51.5t25.5 39t7.5 35.5q0 23 -9.5 34t-27.5 11q-24 0 -33.5 -21.5t-9.5 -60.5h-118v16q0 46 16.5 83t53 59t94.5 22q71 0 112 -38t41 -106q0 -52 -23.5 -89t-64.5 -78l-58 -57h150v-97h-319z" />
    <glyph glyph-name="uni00B3" unicode="&#xb3;" horiz-adv-x="474" 
d="M238 423q-61 0 -95.5 17.5t-48.5 48t-14 70.5v16h117v-4q0 -25 10 -37.5t32 -12.5q20 0 30 12.5t10 34.5q0 28 -13 43t-47 15h-26v72h23q33 0 46 13.5t13 40.5q0 23 -8.5 35.5t-28.5 12.5q-22 0 -31.5 -13.5t-9.5 -36.5v-4h-117v16q0 67 41 101.5t117 34.5
q71 0 113.5 -31t42.5 -93q0 -42 -20 -68.5t-46 -36.5q28 -9 48.5 -33t20.5 -77q0 -64 -42.5 -100t-116.5 -36z" />
    <glyph glyph-name="acute" unicode="&#xb4;" horiz-adv-x="307" 
d="M54 608l61 202h167l-126 -202h-102z" />
    <glyph glyph-name="uni00B5" unicode="&#xb5;" horiz-adv-x="491" 
d="M42 -187v765h162v-430q0 -21 6.5 -32t25.5 -11q10 0 22 5t25 14v454h163v-578h-163v46q-13 -14 -28 -25.5t-30 -16.5q-6 -2 -11 -3.5t-9 -1.5v-186h-163z" />
    <glyph glyph-name="paragraph" unicode="&#xb6;" horiz-adv-x="521" 
d="M188 -96v586q-68 2 -110.5 43t-42.5 117q0 61 27 96t71.5 49.5t96.5 14.5h223v-906h-89v813h-81v-813h-95z" />
    <glyph glyph-name="periodcentered" unicode="&#xb7;" horiz-adv-x="226" 
d="M37 300v152h154v-152h-154z" />
    <glyph glyph-name="cedilla" unicode="&#xb8;" horiz-adv-x="353" 
d="M141 -277q-19 0 -38.5 3t-37.5 9v70q11 -3 26 -5.5t31 -2.5q26 0 44 8t18 27t-14.5 30t-35.5 16t-42 6v116h59v-66q62 0 99.5 -25.5t37.5 -78.5q0 -38 -20.5 -62t-54 -34.5t-72.5 -10.5z" />
    <glyph glyph-name="uni00B9" unicode="&#xb9;" horiz-adv-x="376" 
d="M157 433v320l-92 -36v105l131 66h83v-455h-122z" />
    <glyph glyph-name="ordmasculine" unicode="&#xba;" horiz-adv-x="432" 
d="M215 313q-52 0 -90.5 17.5t-60 52.5t-21.5 87v195q0 78 47.5 117.5t124.5 39.5t125.5 -40t48.5 -117v-195q0 -51 -22 -86t-61 -53t-91 -18zM216 411q15 0 23.5 7t12.5 20.5t4 32.5v193q0 20 -4 33t-12.5 20t-23.5 7q-14 0 -23 -7t-13 -20.5t-4 -32.5v-193q0 -18 4 -31.5
t13 -21t23 -7.5z" />
    <glyph glyph-name="guillemotright" unicode="&#xbb;" horiz-adv-x="494" 
d="M45 37v156l104 107l-104 105v156l199 -234v-56zM261 37v156l104 107l-104 105v156l199 -234v-56z" />
    <glyph glyph-name="onequarter" unicode="&#xbc;" horiz-adv-x="852" 
d="M126 355v320l-92 -36v105l131 66h83v-455h-122zM171 0l387 810h96l-386 -810h-97zM628 0v101h-177v74l196 280h103v-278h44v-76h-44v-101h-122zM535 177h93v133z" />
    <glyph glyph-name="onehalf" unicode="&#xbd;" horiz-adv-x="895" 
d="M118 355v320l-92 -36v105l131 66h83v-455h-122zM163 0l387 810h96l-386 -810h-97zM527 0v80l115 116q30 30 48 51.5t25.5 39t7.5 35.5q0 23 -9.5 34t-27.5 11q-24 0 -33.5 -21.5t-9.5 -60.5h-118v16q0 46 16.5 83t53 59t94.5 22q71 0 112 -38t41 -106q0 -52 -23.5 -89
t-64.5 -78l-58 -57h150v-97h-319z" />
    <glyph glyph-name="threequarters" unicode="&#xbe;" horiz-adv-x="922" 
d="M218 346q-61 0 -95.5 17.5t-48.5 48t-14 70.5v16h117v-4q0 -25 10 -37.5t32 -12.5q20 0 30 12.5t10 34.5q0 28 -13 43t-47 15h-26v72h23q33 0 46 13.5t13 40.5q0 23 -8.5 35.5t-28.5 12.5q-22 0 -31.5 -13.5t-9.5 -36.5v-4h-117v16q0 67 41 101.5t117 34.5
q71 0 113.5 -31t42.5 -93q0 -42 -20 -68.5t-46 -36.5q28 -9 48.5 -33t20.5 -77q0 -64 -42.5 -100t-116.5 -36zM252 0l387 810h96l-386 -810h-97zM710 0v101h-177v74l196 280h103v-278h44v-76h-44v-101h-122zM617 177h93v133z" />
    <glyph glyph-name="questiondown" unicode="&#xbf;" horiz-adv-x="482" 
d="M350 429v-129q-44 -35 -80 -78t-57 -91.5t-21 -100.5q0 -37 14 -53.5t39 -16.5q24 0 37.5 14t13.5 39q0 16 -3 28.5t-9 26.5l147 34q9 -24 13 -46.5t4 -47.5q0 -88 -53.5 -137.5t-153.5 -49.5t-155 53t-55 151q0 60 20 114t58.5 102t93.5 90v98h147zM355 642v-155h-158
v155h158z" />
    <glyph glyph-name="Agrave" unicode="&#xc0;" horiz-adv-x="551" 
d="M21 0l153 810h204l151 -810h-165l-27 171h-119l-28 -171h-169zM234 278h86l-43 316zM228 874l-127 201h168l61 -201h-102z" />
    <glyph glyph-name="Aacute" unicode="&#xc1;" horiz-adv-x="551" 
d="M21 0l153 810h204l151 -810h-165l-27 171h-119l-28 -171h-169zM234 278h86l-43 316zM222 874l63 201h166l-126 -201h-103z" />
    <glyph glyph-name="Acircumflex" unicode="&#xc2;" horiz-adv-x="551" 
d="M21 0l153 810h204l151 -810h-165l-27 171h-119l-28 -171h-169zM234 278h86l-43 316zM113 881l95 192h133l98 -192h-120l-44 119l-43 -119h-119z" />
    <glyph glyph-name="Atilde" unicode="&#xc3;" horiz-adv-x="551" 
d="M21 0l153 810h204l151 -810h-165l-27 171h-119l-28 -171h-169zM234 278h86l-43 316zM357 900q-25 0 -46 12t-40 23.5t-39 11.5q-22 0 -29 -12.5t-7 -28.5h-78q0 41 8 73t28 50.5t54 18.5q25 0 44.5 -11t38.5 -22t40 -11q17 0 24 11t7 27h72q0 -32 -4.5 -65t-21 -55
t-51.5 -22z" />
    <glyph glyph-name="Adieresis" unicode="&#xc4;" horiz-adv-x="551" 
d="M21 0l153 810h204l151 -810h-165l-27 171h-119l-28 -171h-169zM234 278h86l-43 316zM320 894v148h130v-148h-130zM102 894v148h130v-148h-130z" />
    <glyph glyph-name="Aring" unicode="&#xc5;" horiz-adv-x="551" 
d="M21 0l153 810h204l151 -810h-165l-27 171h-119l-28 -171h-169zM234 278h86l-43 316zM275 854q-47 0 -81.5 27.5t-34.5 81.5q0 55 34.5 82.5t81.5 27.5t82.5 -28t35.5 -82t-35 -81.5t-83 -27.5zM275 911q25 0 37.5 15.5t12.5 36.5q0 22 -12.5 37.5t-37.5 15.5
q-24 0 -36.5 -15.5t-12.5 -37.5q0 -21 12.5 -36.5t36.5 -15.5z" />
    <glyph glyph-name="AE" unicode="&#xc6;" horiz-adv-x="708" 
d="M-13 0l353 810h349v-122h-170v-200h120v-126h-120v-240h170v-122h-323v173h-131l-69 -173h-179zM271 286h95v259z" />
    <glyph glyph-name="Ccedilla" unicode="&#xc7;" horiz-adv-x="563" 
d="M292 -12q-92 0 -145.5 33.5t-75.5 94t-22 142.5v292q0 84 22 144.5t75.5 93.5t145.5 33q90 0 140.5 -29.5t71.5 -82.5t21 -122v-70h-175v81q0 24 -2.5 46t-14.5 36.5t-41 14.5q-28 0 -41.5 -15t-17 -37.5t-3.5 -47.5v-381q0 -27 4.5 -49.5t18 -36t39.5 -13.5
q28 0 40 14.5t15 37.5t3 47v85h175v-70q0 -69 -20.5 -123.5t-71 -86t-141.5 -31.5zM302 -277q-19 0 -38.5 3t-37.5 9v70q11 -3 26 -5.5t31 -2.5q26 0 44 8t18 27t-14.5 30t-35.5 16t-42 6v116h59v-66q62 0 99.5 -25.5t37.5 -78.5q0 -38 -20.5 -62t-54 -34.5t-72.5 -10.5z
" />
    <glyph glyph-name="Egrave" unicode="&#xc8;" horiz-adv-x="447" 
d="M60 0v810h364v-122h-185v-201h141v-124h-141v-242h187v-121h-366zM196 874l-127 201h168l61 -201h-102z" />
    <glyph glyph-name="Eacute" unicode="&#xc9;" horiz-adv-x="447" 
d="M60 0v810h364v-122h-185v-201h141v-124h-141v-242h187v-121h-366zM190 874l63 201h166l-126 -201h-103z" />
    <glyph glyph-name="Ecircumflex" unicode="&#xca;" horiz-adv-x="447" 
d="M60 0v810h364v-122h-185v-201h141v-124h-141v-242h187v-121h-366zM81 881l95 192h133l98 -192h-120l-44 119l-43 -119h-119z" />
    <glyph glyph-name="Edieresis" unicode="&#xcb;" horiz-adv-x="447" 
d="M60 0v810h364v-122h-185v-201h141v-124h-141v-242h187v-121h-366zM288 894v148h130v-148h-130zM70 894v148h130v-148h-130z" />
    <glyph glyph-name="Igrave" unicode="&#xcc;" horiz-adv-x="301" 
d="M61 0v810h179v-810h-179zM102 874l-127 201h168l61 -201h-102z" />
    <glyph glyph-name="Iacute" unicode="&#xcd;" horiz-adv-x="301" 
d="M61 0v810h179v-810h-179zM96 874l63 201h166l-126 -201h-103z" />
    <glyph glyph-name="Icircumflex" unicode="&#xce;" horiz-adv-x="301" 
d="M61 0v810h179v-810h-179zM-13 881l95 192h133l98 -192h-120l-44 119l-43 -119h-119z" />
    <glyph glyph-name="Idieresis" unicode="&#xcf;" horiz-adv-x="301" 
d="M61 0v810h179v-810h-179zM194 894v148h130v-148h-130zM-24 894v148h130v-148h-130z" />
    <glyph glyph-name="Eth" unicode="&#xd0;" horiz-adv-x="563" 
d="M51 0v370h-44v89h44v351h206q106 0 165 -26.5t83 -83t24 -146.5v-294q0 -91 -24 -148.5t-82.5 -84.5t-163.5 -27h-208zM231 124h28q41 0 59 12t23 36t5 60v353q0 36 -5.5 58t-23.5 32t-58 10h-28v-226h41v-89h-41v-246z" />
    <glyph glyph-name="Ntilde" unicode="&#xd1;" horiz-adv-x="561" 
d="M60 0v810h126l166 -390v390h148v-810h-121l-166 420v-420h-153zM361 900q-25 0 -46 12t-40 23.5t-39 11.5q-22 0 -29 -12.5t-7 -28.5h-78q0 41 8 73t28 50.5t54 18.5q25 0 44.5 -11t38.5 -22t40 -11q17 0 24 11t7 27h72q0 -32 -4.5 -65t-21 -55t-51.5 -22z" />
    <glyph glyph-name="Ograve" unicode="&#xd2;" 
d="M292 -12q-91 0 -144 32t-76 92t-23 143v301q0 84 23 143t76 90.5t144 31.5q92 0 145.5 -31.5t76.5 -90.5t23 -143v-301q0 -83 -23 -143t-76.5 -92t-145.5 -32zM292 115q28 0 41 14t17 36t4 45v390q0 24 -4 45.5t-17 35.5t-41 14q-26 0 -39 -14t-17 -35.5t-4 -45.5v-390
q0 -23 3.5 -45t16 -36t40.5 -14zM245 874l-127 201h168l61 -201h-102z" />
    <glyph glyph-name="Oacute" unicode="&#xd3;" 
d="M292 -12q-91 0 -144 32t-76 92t-23 143v301q0 84 23 143t76 90.5t144 31.5q92 0 145.5 -31.5t76.5 -90.5t23 -143v-301q0 -83 -23 -143t-76.5 -92t-145.5 -32zM292 115q28 0 41 14t17 36t4 45v390q0 24 -4 45.5t-17 35.5t-41 14q-26 0 -39 -14t-17 -35.5t-4 -45.5v-390
q0 -23 3.5 -45t16 -36t40.5 -14zM239 874l63 201h166l-126 -201h-103z" />
    <glyph glyph-name="Ocircumflex" unicode="&#xd4;" 
d="M292 -12q-91 0 -144 32t-76 92t-23 143v301q0 84 23 143t76 90.5t144 31.5q92 0 145.5 -31.5t76.5 -90.5t23 -143v-301q0 -83 -23 -143t-76.5 -92t-145.5 -32zM292 115q28 0 41 14t17 36t4 45v390q0 24 -4 45.5t-17 35.5t-41 14q-26 0 -39 -14t-17 -35.5t-4 -45.5v-390
q0 -23 3.5 -45t16 -36t40.5 -14zM130 881l95 192h133l98 -192h-120l-44 119l-43 -119h-119z" />
    <glyph glyph-name="Otilde" unicode="&#xd5;" 
d="M292 -12q-91 0 -144 32t-76 92t-23 143v301q0 84 23 143t76 90.5t144 31.5q92 0 145.5 -31.5t76.5 -90.5t23 -143v-301q0 -83 -23 -143t-76.5 -92t-145.5 -32zM292 115q28 0 41 14t17 36t4 45v390q0 24 -4 45.5t-17 35.5t-41 14q-26 0 -39 -14t-17 -35.5t-4 -45.5v-390
q0 -23 3.5 -45t16 -36t40.5 -14zM374 900q-25 0 -46 12t-40 23.5t-39 11.5q-22 0 -29 -12.5t-7 -28.5h-78q0 41 8 73t28 50.5t54 18.5q25 0 44.5 -11t38.5 -22t40 -11q17 0 24 11t7 27h72q0 -32 -4.5 -65t-21 -55t-51.5 -22z" />
    <glyph glyph-name="Odieresis" unicode="&#xd6;" 
d="M292 -12q-91 0 -144 32t-76 92t-23 143v301q0 84 23 143t76 90.5t144 31.5q92 0 145.5 -31.5t76.5 -90.5t23 -143v-301q0 -83 -23 -143t-76.5 -92t-145.5 -32zM292 115q28 0 41 14t17 36t4 45v390q0 24 -4 45.5t-17 35.5t-41 14q-26 0 -39 -14t-17 -35.5t-4 -45.5v-390
q0 -23 3.5 -45t16 -36t40.5 -14zM337 894v148h130v-148h-130zM119 894v148h130v-148h-130z" />
    <glyph glyph-name="multiply" unicode="&#xd7;" horiz-adv-x="486" 
d="M129 227l-75 73l116 116l-116 115l74 75l116 -116l114 116l74 -73l-115 -117l115 -116l-73 -73l-115 115z" />
    <glyph glyph-name="Oslash" unicode="&#xd8;" horiz-adv-x="572" 
d="M120 -90l-39 16l359 958l40 -15zM292 -12q-91 0 -144 32t-76 92t-23 143v301q0 84 23 143t76 90.5t144 31.5q92 0 145.5 -31.5t76.5 -90.5t23 -143v-301q0 -83 -23 -143t-76.5 -92t-145.5 -32zM292 115q28 0 41 14t17 36t4 45v390q0 24 -4 45.5t-17 35.5t-41 14
q-26 0 -39 -14t-17 -35.5t-4 -45.5v-390q0 -23 3.5 -45t16 -36t40.5 -14z" />
    <glyph glyph-name="Ugrave" unicode="&#xd9;" horiz-adv-x="588" 
d="M294 -12q-93 0 -145.5 30.5t-73.5 89t-21 143.5v559h177v-586q0 -25 4 -50t17.5 -41t41.5 -16q29 0 42 16t16.5 41t3.5 50v586h178v-559q0 -85 -21.5 -143.5t-73.5 -89t-145 -30.5zM246 874l-127 201h168l61 -201h-102z" />
    <glyph glyph-name="Uacute" unicode="&#xda;" horiz-adv-x="588" 
d="M294 -12q-93 0 -145.5 30.5t-73.5 89t-21 143.5v559h177v-586q0 -25 4 -50t17.5 -41t41.5 -16q29 0 42 16t16.5 41t3.5 50v586h178v-559q0 -85 -21.5 -143.5t-73.5 -89t-145 -30.5zM240 874l63 201h166l-126 -201h-103z" />
    <glyph glyph-name="Ucircumflex" unicode="&#xdb;" horiz-adv-x="588" 
d="M294 -12q-93 0 -145.5 30.5t-73.5 89t-21 143.5v559h177v-586q0 -25 4 -50t17.5 -41t41.5 -16q29 0 42 16t16.5 41t3.5 50v586h178v-559q0 -85 -21.5 -143.5t-73.5 -89t-145 -30.5zM131 881l95 192h133l98 -192h-120l-44 119l-43 -119h-119z" />
    <glyph glyph-name="Udieresis" unicode="&#xdc;" horiz-adv-x="588" 
d="M294 -12q-93 0 -145.5 30.5t-73.5 89t-21 143.5v559h177v-586q0 -25 4 -50t17.5 -41t41.5 -16q29 0 42 16t16.5 41t3.5 50v586h178v-559q0 -85 -21.5 -143.5t-73.5 -89t-145 -30.5zM338 894v148h130v-148h-130zM120 894v148h130v-148h-130z" />
    <glyph glyph-name="Yacute" unicode="&#xdd;" horiz-adv-x="493" 
d="M162 0v331l-154 479h169l77 -256l69 256h162l-151 -479v-331h-172zM193 874l63 201h166l-126 -201h-103z" />
    <glyph glyph-name="Thorn" unicode="&#xde;" horiz-adv-x="562" 
d="M51 0v810h180v-108h78q80 0 133 -22.5t79 -72t26 -130.5q0 -72 -15 -119t-45.5 -74.5t-77 -38.5t-109.5 -11h-69v-234h-180zM231 361h57q52 0 74 24.5t22 82.5q0 54 -21 79.5t-71 25.5h-61v-212z" />
    <glyph glyph-name="germandbls" unicode="&#xdf;" horiz-adv-x="542" 
d="M254 -15v124q26 0 45 6.5t31.5 20.5t18.5 37t6 57q0 38 -10.5 65.5t-30.5 42t-51 14.5v124q24 0 40 14.5t24 42.5t8 68q0 51 -15 79.5t-50 28.5q-25 0 -38 -14t-18 -38.5t-5 -58.5v-598h-163v598q0 57 20 108t66.5 83.5t123.5 32.5q113 0 165 -57.5t52 -160.5
q0 -58 -27 -103t-91 -71q55 -14 91 -43.5t54 -73.5t18 -103q0 -60 -18 -103t-52 -70t-83 -39.5t-111 -12.5z" />
    <glyph glyph-name="agrave" unicode="&#xe0;" horiz-adv-x="460" 
d="M154 -10q-44 0 -74 21t-45 53.5t-15 66.5q0 54 21.5 91t56.5 62t77 42.5t83 31.5v58q0 15 -3 26.5t-10 18t-21 6.5t-21.5 -6t-10.5 -16.5t-4 -23.5l-4 -42l-152 6q5 104 55.5 153.5t151.5 49.5q88 0 131.5 -48.5t43.5 -125.5v-270q0 -36 1.5 -63t4 -47t4.5 -34h-146
q-3 23 -7 50t-6 32q-10 -36 -37.5 -64t-73.5 -28zM212 100q10 0 18.5 4t15.5 11t12 14v158q-20 -12 -37 -24.5t-29 -27.5t-18.5 -32.5t-6.5 -39.5q0 -29 12 -46t33 -17zM190 642l-127 201h168l61 -201h-102z" />
    <glyph glyph-name="aacute" unicode="&#xe1;" horiz-adv-x="460" 
d="M154 -10q-44 0 -74 21t-45 53.5t-15 66.5q0 54 21.5 91t56.5 62t77 42.5t83 31.5v58q0 15 -3 26.5t-10 18t-21 6.5t-21.5 -6t-10.5 -16.5t-4 -23.5l-4 -42l-152 6q5 104 55.5 153.5t151.5 49.5q88 0 131.5 -48.5t43.5 -125.5v-270q0 -36 1.5 -63t4 -47t4.5 -34h-146
q-3 23 -7 50t-6 32q-10 -36 -37.5 -64t-73.5 -28zM212 100q10 0 18.5 4t15.5 11t12 14v158q-20 -12 -37 -24.5t-29 -27.5t-18.5 -32.5t-6.5 -39.5q0 -29 12 -46t33 -17zM184 642l63 201h166l-126 -201h-103z" />
    <glyph glyph-name="acircumflex" unicode="&#xe2;" horiz-adv-x="460" 
d="M154 -10q-44 0 -74 21t-45 53.5t-15 66.5q0 54 21.5 91t56.5 62t77 42.5t83 31.5v58q0 15 -3 26.5t-10 18t-21 6.5t-21.5 -6t-10.5 -16.5t-4 -23.5l-4 -42l-152 6q5 104 55.5 153.5t151.5 49.5q88 0 131.5 -48.5t43.5 -125.5v-270q0 -36 1.5 -63t4 -47t4.5 -34h-146
q-3 23 -7 50t-6 32q-10 -36 -37.5 -64t-73.5 -28zM212 100q10 0 18.5 4t15.5 11t12 14v158q-20 -12 -37 -24.5t-29 -27.5t-18.5 -32.5t-6.5 -39.5q0 -29 12 -46t33 -17zM75 649l95 192h133l98 -192h-120l-44 119l-43 -119h-119z" />
    <glyph glyph-name="atilde" unicode="&#xe3;" horiz-adv-x="460" 
d="M154 -10q-44 0 -74 21t-45 53.5t-15 66.5q0 54 21.5 91t56.5 62t77 42.5t83 31.5v58q0 15 -3 26.5t-10 18t-21 6.5t-21.5 -6t-10.5 -16.5t-4 -23.5l-4 -42l-152 6q5 104 55.5 153.5t151.5 49.5q88 0 131.5 -48.5t43.5 -125.5v-270q0 -36 1.5 -63t4 -47t4.5 -34h-146
q-3 23 -7 50t-6 32q-10 -36 -37.5 -64t-73.5 -28zM212 100q10 0 18.5 4t15.5 11t12 14v158q-20 -12 -37 -24.5t-29 -27.5t-18.5 -32.5t-6.5 -39.5q0 -29 12 -46t33 -17zM319 668q-25 0 -46 12t-40 23.5t-39 11.5q-22 0 -29 -12.5t-7 -28.5h-78q0 41 8 73t28 50.5t54 18.5
q25 0 44.5 -11t38.5 -22t40 -11q17 0 24 11t7 27h72q0 -32 -4.5 -65t-21 -55t-51.5 -22z" />
    <glyph glyph-name="adieresis" unicode="&#xe4;" horiz-adv-x="460" 
d="M154 -10q-44 0 -74 21t-45 53.5t-15 66.5q0 54 21.5 91t56.5 62t77 42.5t83 31.5v58q0 15 -3 26.5t-10 18t-21 6.5t-21.5 -6t-10.5 -16.5t-4 -23.5l-4 -42l-152 6q5 104 55.5 153.5t151.5 49.5q88 0 131.5 -48.5t43.5 -125.5v-270q0 -36 1.5 -63t4 -47t4.5 -34h-146
q-3 23 -7 50t-6 32q-10 -36 -37.5 -64t-73.5 -28zM212 100q10 0 18.5 4t15.5 11t12 14v158q-20 -12 -37 -24.5t-29 -27.5t-18.5 -32.5t-6.5 -39.5q0 -29 12 -46t33 -17zM282 662v148h130v-148h-130zM64 662v148h130v-148h-130z" />
    <glyph glyph-name="aring" unicode="&#xe5;" horiz-adv-x="460" 
d="M154 -10q-44 0 -74 21t-45 53.5t-15 66.5q0 54 21.5 91t56.5 62t77 42.5t83 31.5v58q0 15 -3 26.5t-10 18t-21 6.5t-21.5 -6t-10.5 -16.5t-4 -23.5l-4 -42l-152 6q5 104 55.5 153.5t151.5 49.5q88 0 131.5 -48.5t43.5 -125.5v-270q0 -36 1.5 -63t4 -47t4.5 -34h-146
q-3 23 -7 50t-6 32q-10 -36 -37.5 -64t-73.5 -28zM212 100q10 0 18.5 4t15.5 11t12 14v158q-20 -12 -37 -24.5t-29 -27.5t-18.5 -32.5t-6.5 -39.5q0 -29 12 -46t33 -17zM237 622q-47 0 -81.5 27.5t-34.5 81.5q0 55 34.5 82.5t81.5 27.5t82.5 -28t35.5 -82t-35 -81.5
t-83 -27.5zM237 679q25 0 37.5 15.5t12.5 36.5q0 22 -12.5 37.5t-37.5 15.5q-24 0 -36.5 -15.5t-12.5 -37.5q0 -21 12.5 -36.5t36.5 -15.5z" />
    <glyph glyph-name="ae" unicode="&#xe6;" horiz-adv-x="678" 
d="M189 -12q-70 0 -111.5 39t-41.5 106q0 57 24 93t63.5 57t85.5 32l60 14v81q0 32 -8.5 44.5t-25.5 12.5q-13 0 -21.5 -7.5t-13 -25.5t-4.5 -52l-158 5q0 97 43.5 149t137.5 52q61 0 94.5 -25t38.5 -60h-17q3 24 23 43t52.5 30.5t71.5 11.5q81 0 119.5 -39.5t38.5 -99.5
q0 -48 -19.5 -78t-53.5 -47t-77 -27l-66 -15v-114q0 -30 5.5 -47t25.5 -17q14 0 20 7.5t8 21.5t2 31v38h150v-47q0 -53 -18.5 -90.5t-55 -57t-90.5 -19.5q-29 0 -58 10.5t-50 32t-28 52.5q-11 -31 -34 -52t-52 -32t-60 -11zM225 98q14 0 23.5 6.5t15 20t5.5 35.5v97l-31 -13
q-21 -9 -34 -21.5t-19 -28t-6 -36.5q0 -17 5 -30.5t15 -21.5t26 -8zM423 356l16 3q34 7 50 22t16 43q0 20 -9.5 33t-29.5 13q-15 0 -24.5 -6.5t-14 -18.5t-4.5 -31v-58z" />
    <glyph glyph-name="ccedilla" unicode="&#xe7;" horiz-adv-x="468" 
d="M239 -10q-63 0 -107.5 23t-68.5 66t-24 104v212q0 62 24 105t68.5 65.5t107.5 22.5q62 0 105.5 -19t66.5 -57.5t23 -97.5v-61h-157v66q0 23 -4.5 35.5t-13 17.5t-20.5 5t-20 -6.5t-12 -21t-4 -40.5v-240q0 -39 9.5 -53t27.5 -14q13 0 21 5.5t12 18t4 33.5v77h157v-70
q0 -58 -23.5 -97.5t-67 -59t-104.5 -19.5zM255 -277q-19 0 -38.5 3t-37.5 9v70q11 -3 26 -5.5t31 -2.5q26 0 44 8t18 27t-14.5 30t-35.5 16t-42 6v116h59v-66q62 0 99.5 -25.5t37.5 -78.5q0 -38 -20.5 -62t-54 -34.5t-72.5 -10.5z" />
    <glyph glyph-name="egrave" unicode="&#xe8;" horiz-adv-x="470" 
d="M240 -10q-63 0 -108 22.5t-69 66t-24 104.5v212q0 62 24 105t69.5 65.5t107.5 22.5q64 0 106.5 -22t64 -65t21.5 -106v-116h-232v-111q0 -22 5 -36t14 -20t21 -6t21.5 5.5t15 17.5t5.5 33v61h150v-56q0 -88 -51 -132.5t-141 -44.5zM200 355h82v58q0 23 -5.5 36t-15 18
t-22.5 5q-12 0 -20.5 -6t-13.5 -20.5t-5 -41.5v-49zM190 642l-127 201h168l61 -201h-102z" />
    <glyph glyph-name="eacute" unicode="&#xe9;" horiz-adv-x="470" 
d="M240 -10q-63 0 -108 22.5t-69 66t-24 104.5v212q0 62 24 105t69.5 65.5t107.5 22.5q64 0 106.5 -22t64 -65t21.5 -106v-116h-232v-111q0 -22 5 -36t14 -20t21 -6t21.5 5.5t15 17.5t5.5 33v61h150v-56q0 -88 -51 -132.5t-141 -44.5zM200 355h82v58q0 23 -5.5 36t-15 18
t-22.5 5q-12 0 -20.5 -6t-13.5 -20.5t-5 -41.5v-49zM184 642l63 201h166l-126 -201h-103z" />
    <glyph glyph-name="ecircumflex" unicode="&#xea;" horiz-adv-x="470" 
d="M240 -10q-63 0 -108 22.5t-69 66t-24 104.5v212q0 62 24 105t69.5 65.5t107.5 22.5q64 0 106.5 -22t64 -65t21.5 -106v-116h-232v-111q0 -22 5 -36t14 -20t21 -6t21.5 5.5t15 17.5t5.5 33v61h150v-56q0 -88 -51 -132.5t-141 -44.5zM200 355h82v58q0 23 -5.5 36t-15 18
t-22.5 5q-12 0 -20.5 -6t-13.5 -20.5t-5 -41.5v-49zM75 649l95 192h133l98 -192h-120l-44 119l-43 -119h-119z" />
    <glyph glyph-name="edieresis" unicode="&#xeb;" horiz-adv-x="470" 
d="M240 -10q-63 0 -108 22.5t-69 66t-24 104.5v212q0 62 24 105t69.5 65.5t107.5 22.5q64 0 106.5 -22t64 -65t21.5 -106v-116h-232v-111q0 -22 5 -36t14 -20t21 -6t21.5 5.5t15 17.5t5.5 33v61h150v-56q0 -88 -51 -132.5t-141 -44.5zM200 355h82v58q0 23 -5.5 36t-15 18
t-22.5 5q-12 0 -20.5 -6t-13.5 -20.5t-5 -41.5v-49zM282 662v148h130v-148h-130zM64 662v148h130v-148h-130z" />
    <glyph glyph-name="igrave" unicode="&#xec;" horiz-adv-x="280" 
d="M59 0v578h163v-578h-163zM93 642l-127 201h168l61 -201h-102z" />
    <glyph glyph-name="iacute" unicode="&#xed;" horiz-adv-x="280" 
d="M59 0v578h163v-578h-163zM87 642l63 201h166l-126 -201h-103z" />
    <glyph glyph-name="icircumflex" unicode="&#xee;" horiz-adv-x="280" 
d="M59 0v578h163v-578h-163zM-22 649l95 192h133l98 -192h-120l-44 119l-43 -119h-119z" />
    <glyph glyph-name="idieresis" unicode="&#xef;" horiz-adv-x="280" 
d="M59 0v578h163v-578h-163zM185 662v148h130v-148h-130zM-33 662v148h130v-148h-130z" />
    <glyph glyph-name="eth" unicode="&#xf0;" horiz-adv-x="520" 
d="M262 -14q-57 0 -104 23t-75.5 72.5t-28.5 129.5v169q0 63 24 108t64 69.5t88 24.5q23 0 42.5 -5t33.5 -13q-1 39 -8 68t-16 41l-87 -46l-18 41l79 42q-10 14 -40.5 23t-79.5 9l7 102q86 0 142.5 -17.5t87.5 -50.5l86 47l18 -41l-75 -41q14 -24 29.5 -62t26.5 -95.5
t11 -140.5v-228q0 -90 -28 -139.5t-75 -69.5t-104 -20zM266 94q16 0 24.5 9.5t12 27.5t3.5 42v73.5v73v73v72.5q-8 5 -17 8.5t-20 3.5q-23 0 -35 -17t-16.5 -57.5t-4.5 -113.5q0 -72 3 -115t14.5 -61.5t35.5 -18.5z" />
    <glyph glyph-name="ntilde" unicode="&#xf1;" horiz-adv-x="507" 
d="M51 0v578h163v-58q32 32 66.5 50t72.5 18q36 0 59.5 -17.5t35.5 -48t12 -69.5v-453h-162v430q0 21 -7 32t-26 11q-10 0 -23.5 -5.5t-27.5 -15.5v-452h-163zM335 668q-25 0 -46 12t-40 23.5t-39 11.5q-22 0 -29 -12.5t-7 -28.5h-78q0 41 8 73t28 50.5t54 18.5
q25 0 44.5 -11t38.5 -22t40 -11q17 0 24 11t7 27h72q0 -32 -4.5 -65t-21 -55t-51.5 -22z" />
    <glyph glyph-name="ograve" unicode="&#xf2;" horiz-adv-x="483" 
d="M241 -10q-62 0 -107.5 21t-70 63t-24.5 105v220q0 63 24.5 105t70 63t107.5 21t107.5 -21t70.5 -63t25 -105v-220q0 -63 -25 -105t-70.5 -63t-107.5 -21zM242 98q16 0 25 8.5t12.5 24t3.5 37.5v242q0 22 -3.5 37.5t-12.5 24t-25 8.5t-25 -8.5t-13 -24t-4 -37.5v-242
q0 -22 4 -37.5t13 -24t25 -8.5zM193 642l-127 201h168l61 -201h-102z" />
    <glyph glyph-name="oacute" unicode="&#xf3;" horiz-adv-x="483" 
d="M241 -10q-62 0 -107.5 21t-70 63t-24.5 105v220q0 63 24.5 105t70 63t107.5 21t107.5 -21t70.5 -63t25 -105v-220q0 -63 -25 -105t-70.5 -63t-107.5 -21zM242 98q16 0 25 8.5t12.5 24t3.5 37.5v242q0 22 -3.5 37.5t-12.5 24t-25 8.5t-25 -8.5t-13 -24t-4 -37.5v-242
q0 -22 4 -37.5t13 -24t25 -8.5zM187 642l63 201h166l-126 -201h-103z" />
    <glyph glyph-name="ocircumflex" unicode="&#xf4;" horiz-adv-x="483" 
d="M241 -10q-62 0 -107.5 21t-70 63t-24.5 105v220q0 63 24.5 105t70 63t107.5 21t107.5 -21t70.5 -63t25 -105v-220q0 -63 -25 -105t-70.5 -63t-107.5 -21zM242 98q16 0 25 8.5t12.5 24t3.5 37.5v242q0 22 -3.5 37.5t-12.5 24t-25 8.5t-25 -8.5t-13 -24t-4 -37.5v-242
q0 -22 4 -37.5t13 -24t25 -8.5zM78 649l95 192h133l98 -192h-120l-44 119l-43 -119h-119z" />
    <glyph glyph-name="otilde" unicode="&#xf5;" horiz-adv-x="483" 
d="M241 -10q-62 0 -107.5 21t-70 63t-24.5 105v220q0 63 24.5 105t70 63t107.5 21t107.5 -21t70.5 -63t25 -105v-220q0 -63 -25 -105t-70.5 -63t-107.5 -21zM242 98q16 0 25 8.5t12.5 24t3.5 37.5v242q0 22 -3.5 37.5t-12.5 24t-25 8.5t-25 -8.5t-13 -24t-4 -37.5v-242
q0 -22 4 -37.5t13 -24t25 -8.5zM322 668q-25 0 -46 12t-40 23.5t-39 11.5q-22 0 -29 -12.5t-7 -28.5h-78q0 41 8 73t28 50.5t54 18.5q25 0 44.5 -11t38.5 -22t40 -11q17 0 24 11t7 27h72q0 -32 -4.5 -65t-21 -55t-51.5 -22z" />
    <glyph glyph-name="odieresis" unicode="&#xf6;" horiz-adv-x="483" 
d="M241 -10q-62 0 -107.5 21t-70 63t-24.5 105v220q0 63 24.5 105t70 63t107.5 21t107.5 -21t70.5 -63t25 -105v-220q0 -63 -25 -105t-70.5 -63t-107.5 -21zM242 98q16 0 25 8.5t12.5 24t3.5 37.5v242q0 22 -3.5 37.5t-12.5 24t-25 8.5t-25 -8.5t-13 -24t-4 -37.5v-242
q0 -22 4 -37.5t13 -24t25 -8.5zM285 662v148h130v-148h-130zM67 662v148h130v-148h-130z" />
    <glyph glyph-name="divide" unicode="&#xf7;" horiz-adv-x="456" 
d="M35 367v95h386v-95h-386zM183 175v123h100v-123h-100zM183 531v123h100v-123h-100z" />
    <glyph glyph-name="oslash" unicode="&#xf8;" horiz-adv-x="477" 
d="M104 -89l-37 16l300 746l39 -16zM241 -10q-62 0 -107.5 21t-70 63t-24.5 105v220q0 63 24.5 105t70 63t107.5 21t107.5 -21t70.5 -63t25 -105v-220q0 -63 -25 -105t-70.5 -63t-107.5 -21zM242 98q16 0 25 8.5t12.5 24t3.5 37.5v242q0 22 -3.5 37.5t-12.5 24t-25 8.5
t-25 -8.5t-13 -24t-4 -37.5v-242q0 -22 4 -37.5t13 -24t25 -8.5z" />
    <glyph glyph-name="ugrave" unicode="&#xf9;" horiz-adv-x="504" 
d="M153 -10q-35 0 -59.5 17.5t-36.5 48.5t-12 69v453h163v-434q0 -21 7.5 -32.5t26.5 -11.5q11 0 23 5.5t25 12.5v460h162v-578h-162v53q-31 -29 -65.5 -46t-71.5 -17zM204 642l-127 201h168l61 -201h-102z" />
    <glyph glyph-name="uacute" unicode="&#xfa;" horiz-adv-x="504" 
d="M153 -10q-35 0 -59.5 17.5t-36.5 48.5t-12 69v453h163v-434q0 -21 7.5 -32.5t26.5 -11.5q11 0 23 5.5t25 12.5v460h162v-578h-162v53q-31 -29 -65.5 -46t-71.5 -17zM198 642l63 201h166l-126 -201h-103z" />
    <glyph glyph-name="ucircumflex" unicode="&#xfb;" horiz-adv-x="504" 
d="M153 -10q-35 0 -59.5 17.5t-36.5 48.5t-12 69v453h163v-434q0 -21 7.5 -32.5t26.5 -11.5q11 0 23 5.5t25 12.5v460h162v-578h-162v53q-31 -29 -65.5 -46t-71.5 -17zM89 649l95 192h133l98 -192h-120l-44 119l-43 -119h-119z" />
    <glyph glyph-name="udieresis" unicode="&#xfc;" horiz-adv-x="504" 
d="M153 -10q-35 0 -59.5 17.5t-36.5 48.5t-12 69v453h163v-434q0 -21 7.5 -32.5t26.5 -11.5q11 0 23 5.5t25 12.5v460h162v-578h-162v53q-31 -29 -65.5 -46t-71.5 -17zM296 662v148h130v-148h-130zM78 662v148h130v-148h-130z" />
    <glyph glyph-name="yacute" unicode="&#xfd;" horiz-adv-x="448" 
d="M67 -168v113q31 0 51.5 4t31 15t10.5 30q0 17 -6 41.5t-15 55.5l-136 487h153l73 -334l55 334h154l-133 -592q-13 -60 -41 -93.5t-68.5 -47t-91.5 -13.5h-37zM170 642l63 201h166l-126 -201h-103z" />
    <glyph glyph-name="thorn" unicode="&#xfe;" horiz-adv-x="494" 
d="M46 -190v1000h163v-274q30 26 62 39t63 13q33 0 56 -13t38 -36.5t22 -54.5t7 -66v-249q0 -54 -14.5 -94t-42.5 -62.5t-69 -22.5q-31 0 -62 14.5t-60 38.5v-233h-163zM252 95q15 0 24 9t13 23.5t4 32.5v270q0 17 -4 30.5t-12.5 21.5t-23.5 8q-11 0 -22 -5t-22 -15v-360
q10 -7 21 -11t22 -4z" />
    <glyph glyph-name="ydieresis" unicode="&#xff;" horiz-adv-x="448" 
d="M67 -168v113q31 0 51.5 4t31 15t10.5 30q0 17 -6 41.5t-15 55.5l-136 487h153l73 -334l55 334h154l-133 -592q-13 -60 -41 -93.5t-68.5 -47t-91.5 -13.5h-37zM268 662v148h130v-148h-130zM50 662v148h130v-148h-130z" />
    <glyph glyph-name="Amacron" unicode="&#x100;" horiz-adv-x="551" 
d="M21 0l153 810h204l151 -810h-165l-27 171h-119l-28 -171h-169zM234 278h86l-43 316zM138 898v77h276v-77h-276z" />
    <glyph glyph-name="amacron" unicode="&#x101;" horiz-adv-x="460" 
d="M154 -10q-44 0 -74 21t-45 53.5t-15 66.5q0 54 21.5 91t56.5 62t77 42.5t83 31.5v58q0 15 -3 26.5t-10 18t-21 6.5t-21.5 -6t-10.5 -16.5t-4 -23.5l-4 -42l-152 6q5 104 55.5 153.5t151.5 49.5q88 0 131.5 -48.5t43.5 -125.5v-270q0 -36 1.5 -63t4 -47t4.5 -34h-146
q-3 23 -7 50t-6 32q-10 -36 -37.5 -64t-73.5 -28zM212 100q10 0 18.5 4t15.5 11t12 14v158q-20 -12 -37 -24.5t-29 -27.5t-18.5 -32.5t-6.5 -39.5q0 -29 12 -46t33 -17zM100 666v77h276v-77h-276z" />
    <glyph glyph-name="Abreve" unicode="&#x102;" horiz-adv-x="551" 
d="M21 0l153 810h204l151 -810h-165l-27 171h-119l-28 -171h-169zM234 278h86l-43 316zM276 875q-71 0 -114 40t-43 116h92q0 -37 14.5 -55t50.5 -18q35 0 50 18.5t15 54.5h92q0 -76 -43 -116t-114 -40z" />
    <glyph glyph-name="abreve" unicode="&#x103;" horiz-adv-x="460" 
d="M154 -10q-44 0 -74 21t-45 53.5t-15 66.5q0 54 21.5 91t56.5 62t77 42.5t83 31.5v58q0 15 -3 26.5t-10 18t-21 6.5t-21.5 -6t-10.5 -16.5t-4 -23.5l-4 -42l-152 6q5 104 55.5 153.5t151.5 49.5q88 0 131.5 -48.5t43.5 -125.5v-270q0 -36 1.5 -63t4 -47t4.5 -34h-146
q-3 23 -7 50t-6 32q-10 -36 -37.5 -64t-73.5 -28zM212 100q10 0 18.5 4t15.5 11t12 14v158q-20 -12 -37 -24.5t-29 -27.5t-18.5 -32.5t-6.5 -39.5q0 -29 12 -46t33 -17zM238 643q-71 0 -114 40t-43 116h92q0 -37 14.5 -55t50.5 -18q35 0 50 18.5t15 54.5h92q0 -76 -43 -116
t-114 -40z" />
    <glyph glyph-name="Aogonek" unicode="&#x104;" horiz-adv-x="551" 
d="M21 0l153 810h204l151 -810h-165l-27 171h-119l-28 -171h-169zM234 278h86l-43 316zM499 -260q-25 0 -53 3.5t-52 14.5t-39 32.5t-15 57.5q0 26 11 54.5t29 54t38 43.5h73q-9 -17 -17.5 -37.5t-13.5 -41.5t-5 -42q0 -34 19.5 -46.5t44.5 -12.5q8 0 16 0.5t13 1.5l-16 -79
q-6 -1 -14.5 -2t-18.5 -1z" />
    <glyph glyph-name="aogonek" unicode="&#x105;" horiz-adv-x="460" 
d="M154 -10q-44 0 -74 21t-45 53.5t-15 66.5q0 54 21.5 91t56.5 62t77 42.5t83 31.5v58q0 15 -3 26.5t-10 18t-21 6.5t-21.5 -6t-10.5 -16.5t-4 -23.5l-4 -42l-152 6q5 104 55.5 153.5t151.5 49.5q88 0 131.5 -48.5t43.5 -125.5v-270q0 -36 1.5 -63t4 -47t4.5 -34h-146
q-3 23 -7 50t-6 32q-10 -36 -37.5 -64t-73.5 -28zM212 100q10 0 18.5 4t15.5 11t12 14v158q-20 -12 -37 -24.5t-29 -27.5t-18.5 -32.5t-6.5 -39.5q0 -29 12 -46t33 -17zM402 -260q-25 0 -53 3.5t-52 14.5t-39 32.5t-15 57.5q0 26 11 54.5t29 54t38 43.5h73
q-9 -17 -17.5 -37.5t-13.5 -41.5t-5 -42q0 -34 19.5 -46.5t44.5 -12.5q8 0 16 0.5t13 1.5l-16 -79q-6 -1 -14.5 -2t-18.5 -1z" />
    <glyph glyph-name="Cacute" unicode="&#x106;" horiz-adv-x="563" 
d="M292 -12q-92 0 -145.5 33.5t-75.5 94t-22 142.5v292q0 84 22 144.5t75.5 93.5t145.5 33q90 0 140.5 -29.5t71.5 -82.5t21 -122v-70h-175v81q0 24 -2.5 46t-14.5 36.5t-41 14.5q-28 0 -41.5 -15t-17 -37.5t-3.5 -47.5v-381q0 -27 4.5 -49.5t18 -36t39.5 -13.5
q28 0 40 14.5t15 37.5t3 47v85h175v-70q0 -69 -20.5 -123.5t-71 -86t-141.5 -31.5zM236 874l63 201h166l-126 -201h-103z" />
    <glyph glyph-name="cacute" unicode="&#x107;" horiz-adv-x="468" 
d="M239 -10q-63 0 -107.5 23t-68.5 66t-24 104v212q0 62 24 105t68.5 65.5t107.5 22.5q62 0 105.5 -19t66.5 -57.5t23 -97.5v-61h-157v66q0 23 -4.5 35.5t-13 17.5t-20.5 5t-20 -6.5t-12 -21t-4 -40.5v-240q0 -39 9.5 -53t27.5 -14q13 0 21 5.5t12 18t4 33.5v77h157v-70
q0 -58 -23.5 -97.5t-67 -59t-104.5 -19.5zM181 642l63 201h166l-126 -201h-103z" />
    <glyph glyph-name="Ccircumflex" unicode="&#x108;" horiz-adv-x="563" 
d="M292 -12q-92 0 -145.5 33.5t-75.5 94t-22 142.5v292q0 84 22 144.5t75.5 93.5t145.5 33q90 0 140.5 -29.5t71.5 -82.5t21 -122v-70h-175v81q0 24 -2.5 46t-14.5 36.5t-41 14.5q-28 0 -41.5 -15t-17 -37.5t-3.5 -47.5v-381q0 -27 4.5 -49.5t18 -36t39.5 -13.5
q28 0 40 14.5t15 37.5t3 47v85h175v-70q0 -69 -20.5 -123.5t-71 -86t-141.5 -31.5zM127 881l95 192h133l98 -192h-120l-44 119l-43 -119h-119z" />
    <glyph glyph-name="ccircumflex" unicode="&#x109;" horiz-adv-x="468" 
d="M239 -10q-63 0 -107.5 23t-68.5 66t-24 104v212q0 62 24 105t68.5 65.5t107.5 22.5q62 0 105.5 -19t66.5 -57.5t23 -97.5v-61h-157v66q0 23 -4.5 35.5t-13 17.5t-20.5 5t-20 -6.5t-12 -21t-4 -40.5v-240q0 -39 9.5 -53t27.5 -14q13 0 21 5.5t12 18t4 33.5v77h157v-70
q0 -58 -23.5 -97.5t-67 -59t-104.5 -19.5zM72 649l95 192h133l98 -192h-120l-44 119l-43 -119h-119z" />
    <glyph glyph-name="Cdotaccent" unicode="&#x10a;" horiz-adv-x="563" 
d="M292 -12q-92 0 -145.5 33.5t-75.5 94t-22 142.5v292q0 84 22 144.5t75.5 93.5t145.5 33q90 0 140.5 -29.5t71.5 -82.5t21 -122v-70h-175v81q0 24 -2.5 46t-14.5 36.5t-41 14.5q-28 0 -41.5 -15t-17 -37.5t-3.5 -47.5v-381q0 -27 4.5 -49.5t18 -36t39.5 -13.5
q28 0 40 14.5t15 37.5t3 47v85h175v-70q0 -69 -20.5 -123.5t-71 -86t-141.5 -31.5zM213 884v154h154v-154h-154z" />
    <glyph glyph-name="cdotaccent" unicode="&#x10b;" horiz-adv-x="468" 
d="M239 -10q-63 0 -107.5 23t-68.5 66t-24 104v212q0 62 24 105t68.5 65.5t107.5 22.5q62 0 105.5 -19t66.5 -57.5t23 -97.5v-61h-157v66q0 23 -4.5 35.5t-13 17.5t-20.5 5t-20 -6.5t-12 -21t-4 -40.5v-240q0 -39 9.5 -53t27.5 -14q13 0 21 5.5t12 18t4 33.5v77h157v-70
q0 -58 -23.5 -97.5t-67 -59t-104.5 -19.5zM158 652v154h154v-154h-154z" />
    <glyph glyph-name="Ccaron" unicode="&#x10c;" horiz-adv-x="563" 
d="M292 -12q-92 0 -145.5 33.5t-75.5 94t-22 142.5v292q0 84 22 144.5t75.5 93.5t145.5 33q90 0 140.5 -29.5t71.5 -82.5t21 -122v-70h-175v81q0 24 -2.5 46t-14.5 36.5t-41 14.5q-28 0 -41.5 -15t-17 -37.5t-3.5 -47.5v-381q0 -27 4.5 -49.5t18 -36t39.5 -13.5
q28 0 40 14.5t15 37.5t3 47v85h175v-70q0 -69 -20.5 -123.5t-71 -86t-141.5 -31.5zM211 871l-88 187h116l51 -110l51 110h116l-88 -187h-158z" />
    <glyph glyph-name="ccaron" unicode="&#x10d;" horiz-adv-x="468" 
d="M239 -10q-63 0 -107.5 23t-68.5 66t-24 104v212q0 62 24 105t68.5 65.5t107.5 22.5q62 0 105.5 -19t66.5 -57.5t23 -97.5v-61h-157v66q0 23 -4.5 35.5t-13 17.5t-20.5 5t-20 -6.5t-12 -21t-4 -40.5v-240q0 -39 9.5 -53t27.5 -14q13 0 21 5.5t12 18t4 33.5v77h157v-70
q0 -58 -23.5 -97.5t-67 -59t-104.5 -19.5zM156 639l-88 187h116l51 -110l51 110h116l-88 -187h-158z" />
    <glyph glyph-name="Dcaron" unicode="&#x10e;" 
d="M60 0v810h205q106 0 165 -26.5t83 -83t24 -146.5v-294q0 -91 -24 -148.5t-82.5 -84.5t-163.5 -27h-207zM239 124h28q41 0 59 12t22.5 36t4.5 60v353q0 36 -5.5 58t-23.5 32t-58 10h-27v-561zM214 871l-88 187h116l51 -110l51 110h116l-88 -187h-158z" />
    <glyph glyph-name="dcaron" unicode="&#x10f;" horiz-adv-x="640" 
d="M176 -10q-64 0 -99 45t-35 133v239q0 54 15 94.5t45 63.5t74 23q32 0 61 -12.5t53 -33.5v268h163v-810h-163v45q-27 -26 -56 -40.5t-58 -14.5zM247 94q8 0 19.5 4t23.5 11v365q-10 5 -21 9t-21 4q-22 0 -32 -18.5t-10 -44.5v-266q0 -18 4 -32.5t13 -23t24 -8.5zM528 517
l-10 52q26 7 48.5 26t22.5 62h-86v154h154v-134q0 -74 -32 -114.5t-97 -45.5z" />
    <glyph glyph-name="Dcroat" unicode="&#x110;" horiz-adv-x="589" 
d="M64 0v374h-51v82h51v354h205q107 0 166 -26.5t82.5 -83t23.5 -146.5v-294q0 -91 -24 -148.5t-82.5 -84.5t-162.5 -27h-208zM239 124h36q41 0 59 12t23 36t5 60v353q0 36 -5.5 58t-24 32t-57.5 10h-36v-229h49v-82h-49v-250z" />
    <glyph glyph-name="dcroat" unicode="&#x111;" horiz-adv-x="500" 
d="M173 -10q-64 0 -99 45t-35 133v239q0 54 15 94.5t45 63.5t74 23q32 0 60 -12.5t52 -33.5v139h-134v66h134v63h163v-63h49v-66h-49v-681h-163v45q-25 -26 -53.5 -40.5t-58.5 -14.5zM244 94q8 0 19 4t22 11v365q-10 5 -20 9t-20 4q-22 0 -32 -18.5t-10 -44.5v-266
q0 -18 4 -32.5t13 -23t24 -8.5z" />
    <glyph glyph-name="Emacron" unicode="&#x112;" horiz-adv-x="447" 
d="M60 0v810h364v-122h-185v-201h141v-124h-141v-242h187v-121h-366zM106 898v77h276v-77h-276z" />
    <glyph glyph-name="emacron" unicode="&#x113;" horiz-adv-x="470" 
d="M240 -10q-63 0 -108 22.5t-69 66t-24 104.5v212q0 62 24 105t69.5 65.5t107.5 22.5q64 0 106.5 -22t64 -65t21.5 -106v-116h-232v-111q0 -22 5 -36t14 -20t21 -6t21.5 5.5t15 17.5t5.5 33v61h150v-56q0 -88 -51 -132.5t-141 -44.5zM200 355h82v58q0 23 -5.5 36t-15 18
t-22.5 5q-12 0 -20.5 -6t-13.5 -20.5t-5 -41.5v-49zM100 666v77h276v-77h-276z" />
    <glyph glyph-name="Ebreve" unicode="&#x114;" horiz-adv-x="447" 
d="M60 0v810h364v-122h-185v-201h141v-124h-141v-242h187v-121h-366zM244 875q-71 0 -114 40t-43 116h92q0 -37 14.5 -55t50.5 -18q35 0 50 18.5t15 54.5h92q0 -76 -43 -116t-114 -40z" />
    <glyph glyph-name="ebreve" unicode="&#x115;" horiz-adv-x="470" 
d="M240 -10q-63 0 -108 22.5t-69 66t-24 104.5v212q0 62 24 105t69.5 65.5t107.5 22.5q64 0 106.5 -22t64 -65t21.5 -106v-116h-232v-111q0 -22 5 -36t14 -20t21 -6t21.5 5.5t15 17.5t5.5 33v61h150v-56q0 -88 -51 -132.5t-141 -44.5zM200 355h82v58q0 23 -5.5 36t-15 18
t-22.5 5q-12 0 -20.5 -6t-13.5 -20.5t-5 -41.5v-49zM238 643q-71 0 -114 40t-43 116h92q0 -37 14.5 -55t50.5 -18q35 0 50 18.5t15 54.5h92q0 -76 -43 -116t-114 -40z" />
    <glyph glyph-name="Edotaccent" unicode="&#x116;" horiz-adv-x="447" 
d="M60 0v810h364v-122h-185v-201h141v-124h-141v-242h187v-121h-366zM167 884v154h154v-154h-154z" />
    <glyph glyph-name="edotaccent" unicode="&#x117;" horiz-adv-x="470" 
d="M240 -10q-63 0 -108 22.5t-69 66t-24 104.5v212q0 62 24 105t69.5 65.5t107.5 22.5q64 0 106.5 -22t64 -65t21.5 -106v-116h-232v-111q0 -22 5 -36t14 -20t21 -6t21.5 5.5t15 17.5t5.5 33v61h150v-56q0 -88 -51 -132.5t-141 -44.5zM200 355h82v58q0 23 -5.5 36t-15 18
t-22.5 5q-12 0 -20.5 -6t-13.5 -20.5t-5 -41.5v-49zM161 652v154h154v-154h-154z" />
    <glyph glyph-name="Eogonek" unicode="&#x118;" horiz-adv-x="447" 
d="M60 0v810h364v-122h-185v-201h141v-124h-141v-242h187v-121h-366zM359 -260q-25 0 -53 3.5t-52 14.5t-39 32.5t-15 57.5q0 26 11 54.5t29 54t38 43.5h73q-9 -17 -17.5 -37.5t-13.5 -41.5t-5 -42q0 -34 19.5 -46.5t44.5 -12.5q8 0 16 0.5t13 1.5l-16 -79q-6 -1 -14.5 -2
t-18.5 -1z" />
    <glyph glyph-name="eogonek" unicode="&#x119;" horiz-adv-x="470" 
d="M240 -10q-63 0 -108 22.5t-69 66t-24 104.5v212q0 62 24 105t69.5 65.5t107.5 22.5q64 0 106.5 -22t64 -65t21.5 -106v-116h-232v-111q0 -22 5 -36t14 -20t21 -6t21.5 5.5t15 17.5t5.5 33v61h150v-56q0 -88 -51 -132.5t-141 -44.5zM200 355h82v58q0 23 -5.5 36t-15 18
t-22.5 5q-12 0 -20.5 -6t-13.5 -20.5t-5 -41.5v-49zM315 -250q-25 0 -53 3.5t-52 14.5t-39 32.5t-15 57.5q0 26 11 54.5t29 54t38 43.5h73q-9 -17 -17.5 -37.5t-13.5 -41.5t-5 -42q0 -34 19.5 -46.5t44.5 -12.5q8 0 16 0.5t13 1.5l-16 -79q-6 -1 -14.5 -2t-18.5 -1z" />
    <glyph glyph-name="Ecaron" unicode="&#x11a;" horiz-adv-x="447" 
d="M60 0v810h364v-122h-185v-201h141v-124h-141v-242h187v-121h-366zM165 871l-88 187h116l51 -110l51 110h116l-88 -187h-158z" />
    <glyph glyph-name="ecaron" unicode="&#x11b;" horiz-adv-x="470" 
d="M240 -10q-63 0 -108 22.5t-69 66t-24 104.5v212q0 62 24 105t69.5 65.5t107.5 22.5q64 0 106.5 -22t64 -65t21.5 -106v-116h-232v-111q0 -22 5 -36t14 -20t21 -6t21.5 5.5t15 17.5t5.5 33v61h150v-56q0 -88 -51 -132.5t-141 -44.5zM200 355h82v58q0 23 -5.5 36t-15 18
t-22.5 5q-12 0 -20.5 -6t-13.5 -20.5t-5 -41.5v-49zM159 639l-88 187h116l51 -110l51 110h116l-88 -187h-158z" />
    <glyph glyph-name="Gcircumflex" unicode="&#x11c;" horiz-adv-x="582" 
d="M271 -12q-84 0 -132.5 35t-69 98.5t-20.5 146.5v272q0 86 22 149t75.5 97.5t145.5 34.5q90 0 141.5 -30t73.5 -83t22 -124v-52h-175v66q0 26 -3.5 48t-16 35.5t-40.5 13.5q-29 0 -42 -15.5t-16.5 -38.5t-3.5 -48v-375q0 -27 5.5 -50.5t20 -38t41.5 -14.5q28 0 43 15
t21 39t6 51v95h-73v105h234v-420h-118l-10 67q-16 -34 -47 -56.5t-84 -22.5zM128 881l95 192h133l98 -192h-120l-44 119l-43 -119h-119z" />
    <glyph glyph-name="gcircumflex" unicode="&#x11d;" horiz-adv-x="502" 
d="M240 -200q-65 0 -113.5 13t-75 39t-26.5 65q0 30 13.5 53.5t38 40.5t55.5 29l63 -11q-11 -9 -20.5 -18.5t-15.5 -20t-6 -24.5q0 -22 25 -33t83 -11q48 0 74.5 8.5t26.5 33.5q0 14 -7 22t-23 13t-44 8l-144 18q-46 6 -73 33t-27 67q0 35 21.5 65t56.5 59l57 -32
q-12 -12 -19 -22.5t-7 -23.5q0 -12 12 -19t43 -11l137 -18q74 -9 108.5 -49t34.5 -103q0 -56 -24.5 -94t-79 -57.5t-144.5 -19.5zM250 187q-68 0 -114.5 24t-70 68.5t-23.5 107.5q0 65 24 110t70.5 68t113.5 23q64 0 108 -24t67.5 -68.5t23.5 -108.5q0 -63 -22.5 -107.5
t-66.5 -68.5t-110 -24zM250 284q14 0 22.5 5.5t13 17.5t6.5 32t2 48q0 29 -2 48.5t-6.5 32t-13 18t-22.5 5.5q-13 0 -22 -5.5t-14 -17.5t-7 -32t-2 -49q0 -28 2 -47.5t6.5 -32t13.5 -18t23 -5.5zM414 487l-34 44q15 29 37.5 46.5t60.5 35.5l39 -78q-10 -3 -29.5 -11.5
t-40 -18.5t-33.5 -18zM88 649l95 192h133l98 -192h-120l-44 119l-43 -119h-119z" />
    <glyph glyph-name="Gbreve" unicode="&#x11e;" horiz-adv-x="582" 
d="M271 -12q-84 0 -132.5 35t-69 98.5t-20.5 146.5v272q0 86 22 149t75.5 97.5t145.5 34.5q90 0 141.5 -30t73.5 -83t22 -124v-52h-175v66q0 26 -3.5 48t-16 35.5t-40.5 13.5q-29 0 -42 -15.5t-16.5 -38.5t-3.5 -48v-375q0 -27 5.5 -50.5t20 -38t41.5 -14.5q28 0 43 15
t21 39t6 51v95h-73v105h234v-420h-118l-10 67q-16 -34 -47 -56.5t-84 -22.5zM291 875q-71 0 -114 40t-43 116h92q0 -37 14.5 -55t50.5 -18q35 0 50 18.5t15 54.5h92q0 -76 -43 -116t-114 -40z" />
    <glyph glyph-name="gbreve" unicode="&#x11f;" horiz-adv-x="502" 
d="M240 -200q-65 0 -113.5 13t-75 39t-26.5 65q0 30 13.5 53.5t38 40.5t55.5 29l63 -11q-11 -9 -20.5 -18.5t-15.5 -20t-6 -24.5q0 -22 25 -33t83 -11q48 0 74.5 8.5t26.5 33.5q0 14 -7 22t-23 13t-44 8l-144 18q-46 6 -73 33t-27 67q0 35 21.5 65t56.5 59l57 -32
q-12 -12 -19 -22.5t-7 -23.5q0 -12 12 -19t43 -11l137 -18q74 -9 108.5 -49t34.5 -103q0 -56 -24.5 -94t-79 -57.5t-144.5 -19.5zM250 187q-68 0 -114.5 24t-70 68.5t-23.5 107.5q0 65 24 110t70.5 68t113.5 23q64 0 108 -24t67.5 -68.5t23.5 -108.5q0 -63 -22.5 -107.5
t-66.5 -68.5t-110 -24zM250 284q14 0 22.5 5.5t13 17.5t6.5 32t2 48q0 29 -2 48.5t-6.5 32t-13 18t-22.5 5.5q-13 0 -22 -5.5t-14 -17.5t-7 -32t-2 -49q0 -28 2 -47.5t6.5 -32t13.5 -18t23 -5.5zM414 487l-34 44q15 29 37.5 46.5t60.5 35.5l39 -78q-10 -3 -29.5 -11.5
t-40 -18.5t-33.5 -18zM251 643q-71 0 -114 40t-43 116h92q0 -37 14.5 -55t50.5 -18q35 0 50 18.5t15 54.5h92q0 -76 -43 -116t-114 -40z" />
    <glyph glyph-name="Gdotaccent" unicode="&#x120;" horiz-adv-x="582" 
d="M271 -12q-84 0 -132.5 35t-69 98.5t-20.5 146.5v272q0 86 22 149t75.5 97.5t145.5 34.5q90 0 141.5 -30t73.5 -83t22 -124v-52h-175v66q0 26 -3.5 48t-16 35.5t-40.5 13.5q-29 0 -42 -15.5t-16.5 -38.5t-3.5 -48v-375q0 -27 5.5 -50.5t20 -38t41.5 -14.5q28 0 43 15
t21 39t6 51v95h-73v105h234v-420h-118l-10 67q-16 -34 -47 -56.5t-84 -22.5zM214 884v154h154v-154h-154z" />
    <glyph glyph-name="gdotaccent" unicode="&#x121;" horiz-adv-x="502" 
d="M240 -200q-65 0 -113.5 13t-75 39t-26.5 65q0 30 13.5 53.5t38 40.5t55.5 29l63 -11q-11 -9 -20.5 -18.5t-15.5 -20t-6 -24.5q0 -22 25 -33t83 -11q48 0 74.5 8.5t26.5 33.5q0 14 -7 22t-23 13t-44 8l-144 18q-46 6 -73 33t-27 67q0 35 21.5 65t56.5 59l57 -32
q-12 -12 -19 -22.5t-7 -23.5q0 -12 12 -19t43 -11l137 -18q74 -9 108.5 -49t34.5 -103q0 -56 -24.5 -94t-79 -57.5t-144.5 -19.5zM250 187q-68 0 -114.5 24t-70 68.5t-23.5 107.5q0 65 24 110t70.5 68t113.5 23q64 0 108 -24t67.5 -68.5t23.5 -108.5q0 -63 -22.5 -107.5
t-66.5 -68.5t-110 -24zM250 284q14 0 22.5 5.5t13 17.5t6.5 32t2 48q0 29 -2 48.5t-6.5 32t-13 18t-22.5 5.5q-13 0 -22 -5.5t-14 -17.5t-7 -32t-2 -49q0 -28 2 -47.5t6.5 -32t13.5 -18t23 -5.5zM414 487l-34 44q15 29 37.5 46.5t60.5 35.5l39 -78q-10 -3 -29.5 -11.5
t-40 -18.5t-33.5 -18zM174 652v154h154v-154h-154z" />
    <glyph glyph-name="uni0122" unicode="&#x122;" horiz-adv-x="582" 
d="M271 -12q-84 0 -132.5 35t-69 98.5t-20.5 146.5v272q0 86 22 149t75.5 97.5t145.5 34.5q90 0 141.5 -30t73.5 -83t22 -124v-52h-175v66q0 26 -3.5 48t-16 35.5t-40.5 13.5q-29 0 -42 -15.5t-16.5 -38.5t-3.5 -48v-375q0 -27 5.5 -50.5t20 -38t41.5 -14.5q28 0 43 15
t21 39t6 51v95h-73v105h234v-420h-118l-10 67q-16 -34 -47 -56.5t-84 -22.5zM241 -356l-13 54q28 5 49.5 21.5t21.5 59.5h-85v152h153v-130q0 -74 -30 -114.5t-96 -42.5z" />
    <glyph glyph-name="uni0123" unicode="&#x123;" horiz-adv-x="502" 
d="M240 -200q-65 0 -113.5 13t-75 39t-26.5 65q0 30 13.5 53.5t38 40.5t55.5 29l63 -11q-11 -9 -20.5 -18.5t-15.5 -20t-6 -24.5q0 -22 25 -33t83 -11q48 0 74.5 8.5t26.5 33.5q0 14 -7 22t-23 13t-44 8l-144 18q-46 6 -73 33t-27 67q0 35 21.5 65t56.5 59l57 -32
q-12 -12 -19 -22.5t-7 -23.5q0 -12 12 -19t43 -11l137 -18q74 -9 108.5 -49t34.5 -103q0 -56 -24.5 -94t-79 -57.5t-144.5 -19.5zM250 187q-68 0 -114.5 24t-70 68.5t-23.5 107.5q0 65 24 110t70.5 68t113.5 23q64 0 108 -24t67.5 -68.5t23.5 -108.5q0 -63 -22.5 -107.5
t-66.5 -68.5t-110 -24zM250 284q14 0 22.5 5.5t13 17.5t6.5 32t2 48q0 29 -2 48.5t-6.5 32t-13 18t-22.5 5.5q-13 0 -22 -5.5t-14 -17.5t-7 -32t-2 -49q0 -28 2 -47.5t6.5 -32t13.5 -18t23 -5.5zM414 487l-34 44q15 29 37.5 46.5t60.5 35.5l39 -78q-10 -3 -29.5 -11.5
t-40 -18.5t-33.5 -18zM301 932l13 -54q-28 -6 -49.5 -22.5t-21.5 -58.5h85v-152h-153v130q0 74 30 114.5t96 42.5z" />
    <glyph glyph-name="Hcircumflex" unicode="&#x124;" horiz-adv-x="610" 
d="M63 0v810h179v-328h126v328h179v-810h-179v354h-126v-354h-179zM142 881l95 192h133l98 -192h-120l-44 119l-43 -119h-119z" />
    <glyph glyph-name="hcircumflex" unicode="&#x125;" horiz-adv-x="509" 
d="M52 0v810h162v-283q32 32 67 46.5t75 14.5q35 0 58.5 -17.5t35.5 -48t12 -69.5v-453h-162v430q0 21 -7 32t-26 11q-10 0 -24 -5.5t-29 -15.5v-452h-162zM-30 881l95 192h133l98 -192h-120l-44 119l-43 -119h-119z" />
    <glyph glyph-name="Hbar" unicode="&#x126;" horiz-adv-x="540" 
d="M38 0v615h-51v56h51v139h179v-139h117v139h180v-139h39v-56h-39v-615h-180v354h-117v-354h-179zM217 482h117v133h-117v-133z" />
    <glyph glyph-name="hbar" unicode="&#x127;" horiz-adv-x="510" 
d="M52 0v671h-46v75h46v64h163v-64h118v-75h-118v-144q32 32 67 46.5t74 14.5q35 0 58.5 -17.5t35.5 -48t12 -69.5v-453h-162v430q0 21 -6.5 32t-25.5 11q-11 0 -24.5 -5.5t-28.5 -15.5v-452h-163z" />
    <glyph glyph-name="Itilde" unicode="&#x128;" horiz-adv-x="301" 
d="M61 0v810h179v-810h-179zM231 900q-25 0 -46 12t-40 23.5t-39 11.5q-22 0 -29 -12.5t-7 -28.5h-78q0 41 8 73t28 50.5t54 18.5q25 0 44.5 -11t38.5 -22t40 -11q17 0 24 11t7 27h72q0 -32 -4.5 -65t-21 -55t-51.5 -22z" />
    <glyph glyph-name="itilde" unicode="&#x129;" horiz-adv-x="280" 
d="M59 0v578h163v-578h-163zM222 668q-25 0 -46 12t-40 23.5t-39 11.5q-22 0 -29 -12.5t-7 -28.5h-78q0 41 8 73t28 50.5t54 18.5q25 0 44.5 -11t38.5 -22t40 -11q17 0 24 11t7 27h72q0 -32 -4.5 -65t-21 -55t-51.5 -22z" />
    <glyph glyph-name="Imacron" unicode="&#x12a;" horiz-adv-x="301" 
d="M61 0v810h179v-810h-179zM12 898v77h276v-77h-276z" />
    <glyph glyph-name="imacron" unicode="&#x12b;" horiz-adv-x="280" 
d="M59 0v578h163v-578h-163zM3 666v77h276v-77h-276z" />
    <glyph glyph-name="Ibreve" unicode="&#x12c;" horiz-adv-x="301" 
d="M61 0v810h179v-810h-179zM150 875q-71 0 -114 40t-43 116h92q0 -37 14.5 -55t50.5 -18q35 0 50 18.5t15 54.5h92q0 -76 -43 -116t-114 -40z" />
    <glyph glyph-name="ibreve" unicode="&#x12d;" horiz-adv-x="280" 
d="M59 0v578h163v-578h-163zM141 643q-71 0 -114 40t-43 116h92q0 -37 14.5 -55t50.5 -18q35 0 50 18.5t15 54.5h92q0 -76 -43 -116t-114 -40z" />
    <glyph glyph-name="Iogonek" unicode="&#x12e;" horiz-adv-x="301" 
d="M61 0v810h179v-810h-179zM196 -260q-25 0 -53 3.5t-52 14.5t-39 32.5t-15 57.5q0 26 11 54.5t29 54t38 43.5h73q-9 -17 -17.5 -37.5t-13.5 -41.5t-5 -42q0 -34 19.5 -46.5t44.5 -12.5q8 0 16 0.5t13 1.5l-16 -79q-6 -1 -14.5 -2t-18.5 -1z" />
    <glyph glyph-name="iogonek" unicode="&#x12f;" horiz-adv-x="265" 
d="M52 0v578h163v-578h-163zM51 676v113h164v-113h-164zM179 -260q-25 0 -53 3.5t-52 14.5t-39 32.5t-15 57.5q0 26 11 54.5t29 54t38 43.5h73q-9 -17 -17.5 -37.5t-13.5 -41.5t-5 -42q0 -34 19.5 -46.5t44.5 -12.5q8 0 16 0.5t13 1.5l-16 -79q-6 -1 -14.5 -2t-18.5 -1z" />
    <glyph glyph-name="Idotaccent" unicode="&#x130;" horiz-adv-x="301" 
d="M61 0v810h179v-810h-179zM73 884v154h154v-154h-154z" />
    <glyph glyph-name="dotlessi" unicode="&#x131;" horiz-adv-x="280" 
d="M59 0v578h163v-578h-163z" />
    <glyph glyph-name="IJ" unicode="&#x132;" horiz-adv-x="650" 
d="M61 0v810h179v-810h-179zM314 -21v125q27 0 46 3t30 11.5t16 25t5 42.5v624h179v-632q0 -66 -16.5 -110.5t-57.5 -66.5t-115 -22h-87z" />
    <glyph glyph-name="ij" unicode="&#x133;" horiz-adv-x="534" 
d="M52 0v578h163v-578h-163zM51 676v113h164v-113h-164zM335 -180q-22 0 -44.5 3.5t-42.5 9.5v117q8 -1 15.5 -2.5t13.5 -1.5q14 0 24 5t15.5 15.5t5.5 28.5v583h162v-603q0 -68 -37.5 -111.5t-111.5 -43.5zM321 676v113h164v-113h-164z" />
    <glyph glyph-name="Jcircumflex" unicode="&#x134;" horiz-adv-x="349" 
d="M13 -21v125q27 0 46 3t30 11.5t16 25t5 42.5v624h179v-632q0 -66 -16.5 -110.5t-57.5 -66.5t-115 -22h-87zM37 881l95 192h133l98 -192h-120l-44 119l-43 -119h-119z" />
    <glyph glyph-name="jcircumflex" unicode="&#x135;" horiz-adv-x="277" 
d="M78 -180q-23 0 -45 3.5t-42 9.5v117q7 -1 14.5 -2.5t14.5 -1.5q14 0 23.5 5t15 15.5t5.5 28.5v583h163v-603q0 -68 -37.5 -111.5t-111.5 -43.5zM-17 649l95 192h133l98 -192h-120l-44 119l-43 -119h-119z" />
    <glyph glyph-name="uni0136" unicode="&#x136;" horiz-adv-x="567" 
d="M60 0v810h179v-331l136 331h175l-150 -366l157 -444h-182l-117 358l-19 -32v-326h-179zM234 -356l-13 54q28 5 49.5 21.5t21.5 59.5h-85v152h153v-130q0 -74 -30 -114.5t-96 -42.5z" />
    <glyph glyph-name="uni0137" unicode="&#x137;" horiz-adv-x="510" 
d="M51 0v810h157v-449l118 217h181l-139 -237l138 -341h-176l-86 275l-36 -55v-220h-157zM210 -356l-13 54q28 5 49.5 21.5t21.5 59.5h-85v152h153v-130q0 -74 -30 -114.5t-96 -42.5z" />
    <glyph glyph-name="kgreenlandic" unicode="&#x138;" horiz-adv-x="508" 
d="M50 0v578h163v-241l111 241h176l-118 -257l120 -321h-171l-92 267l-26 -38v-229h-163z" />
    <glyph glyph-name="Lacute" unicode="&#x139;" horiz-adv-x="443" 
d="M60 0v810h179v-689h186v-121h-365zM95 874l63 201h166l-126 -201h-103z" />
    <glyph glyph-name="lacute" unicode="&#x13a;" horiz-adv-x="274" 
d="M58 0v810h162v-810h-162zM85 874l63 201h166l-126 -201h-103z" />
    <glyph glyph-name="uni013B" unicode="&#x13b;" horiz-adv-x="443" 
d="M60 0v810h179v-689h186v-121h-365zM192 -356l-13 54q28 5 49.5 21.5t21.5 59.5h-85v152h153v-130q0 -74 -30 -114.5t-96 -42.5z" />
    <glyph glyph-name="uni013C" unicode="&#x13c;" horiz-adv-x="274" 
d="M58 0v810h162v-810h-162zM89 -356l-13 54q28 5 49.5 21.5t21.5 59.5h-85v152h153v-130q0 -74 -30 -114.5t-96 -42.5z" />
    <glyph glyph-name="Lcaron" unicode="&#x13d;" horiz-adv-x="443" 
d="M60 0v810h179v-689h186v-121h-365zM325 516l-10 52q26 7 48.5 26t22.5 62h-86v154h154v-134q0 -74 -32 -114.5t-97 -45.5z" />
    <glyph glyph-name="lcaron" unicode="&#x13e;" horiz-adv-x="408" 
d="M58 0v810h162v-810h-162zM294 517l-10 52q26 7 48.5 26t22.5 62h-86v154h154v-134q0 -74 -32 -114.5t-97 -45.5z" />
    <glyph glyph-name="Ldot" unicode="&#x13f;" horiz-adv-x="443" 
d="M60 0v810h179v-689h186v-121h-365zM316 378v152h111v-152h-111z" />
    <glyph glyph-name="ldot" unicode="&#x140;" horiz-adv-x="363" 
d="M58 0v810h162v-810h-162zM265 365v152h111v-152h-111z" />
    <glyph glyph-name="Lslash" unicode="&#x141;" horiz-adv-x="450" 
d="M68 0v358l-60 -28v98l60 28v354h179v-270l98 47v-98l-98 -47v-321h186v-121h-365z" />
    <glyph glyph-name="lslash" unicode="&#x142;" horiz-adv-x="334" 
d="M87 0v414l-67 -29v91l67 29v305h162v-236l77 33v-91l-77 -32v-484h-162z" />
    <glyph glyph-name="Nacute" unicode="&#x143;" horiz-adv-x="561" 
d="M60 0v810h126l166 -390v390h148v-810h-121l-166 420v-420h-153zM226 874l63 201h166l-126 -201h-103z" />
    <glyph glyph-name="nacute" unicode="&#x144;" horiz-adv-x="507" 
d="M51 0v578h163v-58q32 32 66.5 50t72.5 18q36 0 59.5 -17.5t35.5 -48t12 -69.5v-453h-162v430q0 21 -7 32t-26 11q-10 0 -23.5 -5.5t-27.5 -15.5v-452h-163zM200 642l63 201h166l-126 -201h-103z" />
    <glyph glyph-name="uni0145" unicode="&#x145;" horiz-adv-x="561" 
d="M60 0v810h126l166 -390v390h148v-810h-121l-166 420v-420h-153zM230 -356l-13 54q28 5 49.5 21.5t21.5 59.5h-85v152h153v-130q0 -74 -30 -114.5t-96 -42.5z" />
    <glyph glyph-name="uni0146" unicode="&#x146;" horiz-adv-x="507" 
d="M51 0v578h163v-58q32 32 66.5 50t72.5 18q36 0 59.5 -17.5t35.5 -48t12 -69.5v-453h-162v430q0 21 -7 32t-26 11q-10 0 -23.5 -5.5t-27.5 -15.5v-452h-163zM204 -356l-13 54q28 5 49.5 21.5t21.5 59.5h-85v152h153v-130q0 -74 -30 -114.5t-96 -42.5z" />
    <glyph glyph-name="Ncaron" unicode="&#x147;" horiz-adv-x="561" 
d="M60 0v810h126l166 -390v390h148v-810h-121l-166 420v-420h-153zM201 871l-88 187h116l51 -110l51 110h116l-88 -187h-158z" />
    <glyph glyph-name="ncaron" unicode="&#x148;" horiz-adv-x="507" 
d="M51 0v578h163v-58q32 32 66.5 50t72.5 18q36 0 59.5 -17.5t35.5 -48t12 -69.5v-453h-162v430q0 21 -7 32t-26 11q-10 0 -23.5 -5.5t-27.5 -15.5v-452h-163zM175 639l-88 187h116l51 -110l51 110h116l-88 -187h-158z" />
    <glyph glyph-name="napostrophe" unicode="&#x149;" horiz-adv-x="585" 
d="M57 627l-10 53q26 7 48.5 25.5t22.5 61.5h-86v154h155v-133q-1 -74 -33 -115t-97 -46zM143 0v578h163v-58q32 32 66.5 50t72.5 18q36 0 59.5 -17.5t35.5 -48t12 -69.5v-453h-162v430q0 21 -7 32t-26 11q-10 0 -23.5 -5.5t-27.5 -15.5v-452h-163z" />
    <glyph glyph-name="Eng" unicode="&#x14a;" horiz-adv-x="568" 
d="M245 -209v107q45 0 71 8t37.5 27t11.5 52v91l-150 344v-420h-152v810h127l167 -390v390h147v-810q0 -68 -15 -115t-55 -70.5t-115 -23.5h-74z" />
    <glyph glyph-name="eng" unicode="&#x14b;" horiz-adv-x="476" 
d="M178 -195v103q46 0 70 7.5t32.5 26.5t8.5 53v435q0 21 -6.5 32t-25.5 11q-11 0 -24.5 -5.5t-27.5 -15.5v-452h-163v578h163v-51q32 32 66.5 46.5t73.5 14.5q35 0 59 -17.5t36 -48t12 -69.5v-459q0 -68 -20 -109.5t-67 -60.5t-128 -19h-59z" />
    <glyph glyph-name="Omacron" unicode="&#x14c;" 
d="M292 -12q-91 0 -144 32t-76 92t-23 143v301q0 84 23 143t76 90.5t144 31.5q92 0 145.5 -31.5t76.5 -90.5t23 -143v-301q0 -83 -23 -143t-76.5 -92t-145.5 -32zM292 115q28 0 41 14t17 36t4 45v390q0 24 -4 45.5t-17 35.5t-41 14q-26 0 -39 -14t-17 -35.5t-4 -45.5v-390
q0 -23 3.5 -45t16 -36t40.5 -14zM155 898v77h276v-77h-276z" />
    <glyph glyph-name="omacron" unicode="&#x14d;" horiz-adv-x="483" 
d="M241 -10q-62 0 -107.5 21t-70 63t-24.5 105v220q0 63 24.5 105t70 63t107.5 21t107.5 -21t70.5 -63t25 -105v-220q0 -63 -25 -105t-70.5 -63t-107.5 -21zM242 98q16 0 25 8.5t12.5 24t3.5 37.5v242q0 22 -3.5 37.5t-12.5 24t-25 8.5t-25 -8.5t-13 -24t-4 -37.5v-242
q0 -22 4 -37.5t13 -24t25 -8.5zM103 666v77h276v-77h-276z" />
    <glyph glyph-name="Obreve" unicode="&#x14e;" 
d="M292 -12q-91 0 -144 32t-76 92t-23 143v301q0 84 23 143t76 90.5t144 31.5q92 0 145.5 -31.5t76.5 -90.5t23 -143v-301q0 -83 -23 -143t-76.5 -92t-145.5 -32zM292 115q28 0 41 14t17 36t4 45v390q0 24 -4 45.5t-17 35.5t-41 14q-26 0 -39 -14t-17 -35.5t-4 -45.5v-390
q0 -23 3.5 -45t16 -36t40.5 -14zM293 875q-71 0 -114 40t-43 116h92q0 -37 14.5 -55t50.5 -18q35 0 50 18.5t15 54.5h92q0 -76 -43 -116t-114 -40z" />
    <glyph glyph-name="obreve" unicode="&#x14f;" horiz-adv-x="483" 
d="M241 -10q-62 0 -107.5 21t-70 63t-24.5 105v220q0 63 24.5 105t70 63t107.5 21t107.5 -21t70.5 -63t25 -105v-220q0 -63 -25 -105t-70.5 -63t-107.5 -21zM242 98q16 0 25 8.5t12.5 24t3.5 37.5v242q0 22 -3.5 37.5t-12.5 24t-25 8.5t-25 -8.5t-13 -24t-4 -37.5v-242
q0 -22 4 -37.5t13 -24t25 -8.5zM241 643q-71 0 -114 40t-43 116h92q0 -37 14.5 -55t50.5 -18q35 0 50 18.5t15 54.5h92q0 -76 -43 -116t-114 -40z" />
    <glyph glyph-name="Ohungarumlaut" unicode="&#x150;" 
d="M292 -12q-91 0 -144 32t-76 92t-23 143v301q0 84 23 143t76 90.5t144 31.5q92 0 145.5 -31.5t76.5 -90.5t23 -143v-301q0 -83 -23 -143t-76.5 -92t-145.5 -32zM292 115q28 0 41 14t17 36t4 45v390q0 24 -4 45.5t-17 35.5t-41 14q-26 0 -39 -14t-17 -35.5t-4 -45.5v-390
q0 -23 3.5 -45t16 -36t40.5 -14zM335 865l64 216h140l-120 -216h-84zM157 865l60 216h132l-108 -216h-84z" />
    <glyph glyph-name="ohungarumlaut" unicode="&#x151;" horiz-adv-x="483" 
d="M241 -10q-62 0 -107.5 21t-70 63t-24.5 105v220q0 63 24.5 105t70 63t107.5 21t107.5 -21t70.5 -63t25 -105v-220q0 -63 -25 -105t-70.5 -63t-107.5 -21zM242 98q16 0 25 8.5t12.5 24t3.5 37.5v242q0 22 -3.5 37.5t-12.5 24t-25 8.5t-25 -8.5t-13 -24t-4 -37.5v-242
q0 -22 4 -37.5t13 -24t25 -8.5zM283 633l64 216h140l-120 -216h-84zM105 633l60 216h132l-108 -216h-84z" />
    <glyph glyph-name="OE" unicode="&#x152;" horiz-adv-x="718" 
d="M295 0q-92 0 -146 34.5t-77 97t-23 146.5v242q0 82 22.5 147t76 102.5t145.5 37.5h398v-122h-168v-204h124v-125h-124v-235h169v-121h-397zM295 124h50v556h-50q-32 0 -46 -19.5t-17.5 -49t-3.5 -59.5v-308q0 -29 4 -57t18 -45.5t45 -17.5z" />
    <glyph glyph-name="oe" unicode="&#x153;" horiz-adv-x="705" 
d="M211 -13q-47 0 -85.5 20.5t-61.5 61.5t-23 105v252q0 60 22.5 99t63 58t93.5 19q27 0 55.5 -8.5t52 -24.5t32.5 -41q10 25 33 41.5t51 24.5t53 8q64 0 102 -25.5t54.5 -71t16.5 -105.5v-122h-221v-103q0 -24 3 -43.5t11 -31t22 -11.5q18 0 25 16t7 45v77h153v-76
q0 -76 -42.5 -120t-125.5 -44q-54 0 -92 19.5t-54 53.5q-17 -31 -51.5 -52t-93.5 -21zM238 89q13 0 22 7t14 24.5t5 48.5v265q0 23 -4.5 38t-13 22.5t-21.5 7.5q-12 0 -21 -7t-13.5 -22t-4.5 -39v-264q0 -24 3.5 -42t12 -28.5t21.5 -10.5zM449 364h70v81q0 17 -4.5 30
t-12.5 20t-19 7q-10 0 -17.5 -6.5t-12 -19t-4.5 -31.5v-81z" />
    <glyph glyph-name="Racute" unicode="&#x154;" horiz-adv-x="600" 
d="M60 0v810h223q82 0 142 -18t93.5 -64.5t33.5 -131.5q0 -50 -8 -89t-29.5 -67.5t-61.5 -47.5l111 -392h-185l-89 363h-51v-363h-179zM239 466h50q38 0 59 13.5t29.5 39t8.5 61.5q0 52 -19 81t-70 29h-58v-224zM246 874l63 201h166l-126 -201h-103z" />
    <glyph glyph-name="racute" unicode="&#x155;" horiz-adv-x="383" 
d="M53 0v578h163v-96q28 50 56 76.5t68 26.5q8 0 14 -0.5t11 -2.5v-162q-11 5 -24.5 8.5t-28.5 3.5q-28 0 -52 -15t-44 -41v-376h-163zM144 642l63 201h166l-126 -201h-103z" />
    <glyph glyph-name="uni0156" unicode="&#x156;" horiz-adv-x="600" 
d="M60 0v810h223q82 0 142 -18t93.5 -64.5t33.5 -131.5q0 -50 -8 -89t-29.5 -67.5t-61.5 -47.5l111 -392h-185l-89 363h-51v-363h-179zM239 466h50q38 0 59 13.5t29.5 39t8.5 61.5q0 52 -19 81t-70 29h-58v-224zM250 -356l-13 54q28 5 49.5 21.5t21.5 59.5h-85v152h153v-130
q0 -74 -30 -114.5t-96 -42.5z" />
    <glyph glyph-name="uni0157" unicode="&#x157;" horiz-adv-x="383" 
d="M53 0v578h163v-96q28 50 56 76.5t68 26.5q8 0 14 -0.5t11 -2.5v-162q-11 5 -24.5 8.5t-28.5 3.5q-28 0 -52 -15t-44 -41v-376h-163zM85 -356l-13 54q28 5 49.5 21.5t21.5 59.5h-85v152h153v-130q0 -74 -30 -114.5t-96 -42.5z" />
    <glyph glyph-name="Rcaron" unicode="&#x158;" horiz-adv-x="600" 
d="M60 0v810h223q82 0 142 -18t93.5 -64.5t33.5 -131.5q0 -50 -8 -89t-29.5 -67.5t-61.5 -47.5l111 -392h-185l-89 363h-51v-363h-179zM239 466h50q38 0 59 13.5t29.5 39t8.5 61.5q0 52 -19 81t-70 29h-58v-224zM221 871l-88 187h116l51 -110l51 110h116l-88 -187h-158z" />
    <glyph glyph-name="rcaron" unicode="&#x159;" horiz-adv-x="383" 
d="M53 0v578h163v-96q28 50 56 76.5t68 26.5q8 0 14 -0.5t11 -2.5v-162q-11 5 -24.5 8.5t-28.5 3.5q-28 0 -52 -15t-44 -41v-376h-163zM119 639l-88 187h116l51 -110l51 110h116l-88 -187h-158z" />
    <glyph glyph-name="Sacute" unicode="&#x15a;" horiz-adv-x="514" 
d="M275 -12q-76 0 -127 27t-77 83.5t-29 146.5l153 23q1 -52 9.5 -84t24 -46t37.5 -14q28 0 36.5 19t8.5 40q0 50 -24 84.5t-65 69.5l-70 61q-46 39 -77.5 88.5t-31.5 122.5q0 103 61 157.5t166 54.5q65 0 104.5 -22t60 -57.5t28 -75t8.5 -75.5l-154 -19q-1 36 -4.5 62.5
t-14.5 41t-34 14.5q-25 0 -36.5 -21t-11.5 -42q0 -45 21.5 -73.5t56.5 -59.5l67 -59q53 -45 89.5 -102t36.5 -141q0 -57 -26 -103.5t-73.5 -73.5t-112.5 -27zM203 874l63 201h166l-126 -201h-103z" />
    <glyph glyph-name="sacute" unicode="&#x15b;" horiz-adv-x="424" 
d="M229 -10q-76 0 -126.5 34t-82.5 111l111 49q16 -39 37.5 -61.5t47.5 -22.5q19 0 28.5 8t9.5 22q0 23 -17.5 42t-62.5 56l-42 35q-46 39 -72.5 75.5t-26.5 90.5q0 47 24.5 83t65.5 56t88 20q72 0 120 -39t68 -110l-107 -48q-6 19 -17 38t-26 32t-34 13q-16 0 -25.5 -9
t-9.5 -24q0 -19 21.5 -41t59.5 -53l41 -36q25 -21 49 -45t39.5 -53t15.5 -66q0 -50 -25 -85.5t-65.5 -53.5t-86.5 -18zM158 642l63 201h166l-126 -201h-103z" />
    <glyph glyph-name="Scircumflex" unicode="&#x15c;" horiz-adv-x="514" 
d="M275 -12q-76 0 -127 27t-77 83.5t-29 146.5l153 23q1 -52 9.5 -84t24 -46t37.5 -14q28 0 36.5 19t8.5 40q0 50 -24 84.5t-65 69.5l-70 61q-46 39 -77.5 88.5t-31.5 122.5q0 103 61 157.5t166 54.5q65 0 104.5 -22t60 -57.5t28 -75t8.5 -75.5l-154 -19q-1 36 -4.5 62.5
t-14.5 41t-34 14.5q-25 0 -36.5 -21t-11.5 -42q0 -45 21.5 -73.5t56.5 -59.5l67 -59q53 -45 89.5 -102t36.5 -141q0 -57 -26 -103.5t-73.5 -73.5t-112.5 -27zM94 881l95 192h133l98 -192h-120l-44 119l-43 -119h-119z" />
    <glyph glyph-name="scircumflex" unicode="&#x15d;" horiz-adv-x="424" 
d="M229 -10q-76 0 -126.5 34t-82.5 111l111 49q16 -39 37.5 -61.5t47.5 -22.5q19 0 28.5 8t9.5 22q0 23 -17.5 42t-62.5 56l-42 35q-46 39 -72.5 75.5t-26.5 90.5q0 47 24.5 83t65.5 56t88 20q72 0 120 -39t68 -110l-107 -48q-6 19 -17 38t-26 32t-34 13q-16 0 -25.5 -9
t-9.5 -24q0 -19 21.5 -41t59.5 -53l41 -36q25 -21 49 -45t39.5 -53t15.5 -66q0 -50 -25 -85.5t-65.5 -53.5t-86.5 -18zM49 649l95 192h133l98 -192h-120l-44 119l-43 -119h-119z" />
    <glyph glyph-name="Scedilla" unicode="&#x15e;" horiz-adv-x="514" 
d="M275 -12q-76 0 -127 27t-77 83.5t-29 146.5l153 23q1 -52 9.5 -84t24 -46t37.5 -14q28 0 36.5 19t8.5 40q0 50 -24 84.5t-65 69.5l-70 61q-46 39 -77.5 88.5t-31.5 122.5q0 103 61 157.5t166 54.5q65 0 104.5 -22t60 -57.5t28 -75t8.5 -75.5l-154 -19q-1 36 -4.5 62.5
t-14.5 41t-34 14.5q-25 0 -36.5 -21t-11.5 -42q0 -45 21.5 -73.5t56.5 -59.5l67 -59q53 -45 89.5 -102t36.5 -141q0 -57 -26 -103.5t-73.5 -73.5t-112.5 -27zM277 -277q-19 0 -38.5 3t-37.5 9v70q11 -3 26 -5.5t31 -2.5q26 0 44 8t18 27t-14.5 30t-35.5 16t-42 6v116h59v-66
q62 0 99.5 -25.5t37.5 -78.5q0 -38 -20.5 -62t-54 -34.5t-72.5 -10.5z" />
    <glyph glyph-name="scedilla" unicode="&#x15f;" horiz-adv-x="424" 
d="M229 -10q-76 0 -126.5 34t-82.5 111l111 49q16 -39 37.5 -61.5t47.5 -22.5q19 0 28.5 8t9.5 22q0 23 -17.5 42t-62.5 56l-42 35q-46 39 -72.5 75.5t-26.5 90.5q0 47 24.5 83t65.5 56t88 20q72 0 120 -39t68 -110l-107 -48q-6 19 -17 38t-26 32t-34 13q-16 0 -25.5 -9
t-9.5 -24q0 -19 21.5 -41t59.5 -53l41 -36q25 -21 49 -45t39.5 -53t15.5 -66q0 -50 -25 -85.5t-65.5 -53.5t-86.5 -18zM232 -277q-19 0 -38.5 3t-37.5 9v70q11 -3 26 -5.5t31 -2.5q26 0 44 8t18 27t-14.5 30t-35.5 16t-42 6v116h59v-66q62 0 99.5 -25.5t37.5 -78.5
q0 -38 -20.5 -62t-54 -34.5t-72.5 -10.5z" />
    <glyph glyph-name="Scaron" unicode="&#x160;" horiz-adv-x="514" 
d="M275 -12q-76 0 -127 27t-77 83.5t-29 146.5l153 23q1 -52 9.5 -84t24 -46t37.5 -14q28 0 36.5 19t8.5 40q0 50 -24 84.5t-65 69.5l-70 61q-46 39 -77.5 88.5t-31.5 122.5q0 103 61 157.5t166 54.5q65 0 104.5 -22t60 -57.5t28 -75t8.5 -75.5l-154 -19q-1 36 -4.5 62.5
t-14.5 41t-34 14.5q-25 0 -36.5 -21t-11.5 -42q0 -45 21.5 -73.5t56.5 -59.5l67 -59q53 -45 89.5 -102t36.5 -141q0 -57 -26 -103.5t-73.5 -73.5t-112.5 -27zM178 871l-88 187h116l51 -110l51 110h116l-88 -187h-158z" />
    <glyph glyph-name="scaron" unicode="&#x161;" horiz-adv-x="424" 
d="M229 -10q-76 0 -126.5 34t-82.5 111l111 49q16 -39 37.5 -61.5t47.5 -22.5q19 0 28.5 8t9.5 22q0 23 -17.5 42t-62.5 56l-42 35q-46 39 -72.5 75.5t-26.5 90.5q0 47 24.5 83t65.5 56t88 20q72 0 120 -39t68 -110l-107 -48q-6 19 -17 38t-26 32t-34 13q-16 0 -25.5 -9
t-9.5 -24q0 -19 21.5 -41t59.5 -53l41 -36q25 -21 49 -45t39.5 -53t15.5 -66q0 -50 -25 -85.5t-65.5 -53.5t-86.5 -18zM133 639l-88 187h116l51 -110l51 110h116l-88 -187h-158z" />
    <glyph glyph-name="uni0162" unicode="&#x162;" horiz-adv-x="445" 
d="M133 0v677h-122v133h423v-133h-121v-677h-180zM242 -277q-19 0 -38.5 3t-37.5 9v70q11 -3 26 -5.5t31 -2.5q26 0 44 8t18 27t-14.5 30t-35.5 16t-42 6v116h59v-66q62 0 99.5 -25.5t37.5 -78.5q0 -38 -20.5 -62t-54 -34.5t-72.5 -10.5z" />
    <glyph glyph-name="uni0163" unicode="&#x163;" horiz-adv-x="351" 
d="M232 -6q-65 0 -100 19t-48.5 55.5t-13.5 88.5v314h-56v107h56v176h165v-176h82v-107h-82v-298q0 -25 14.5 -36t36.5 -11q13 0 24 1.5t20 2.5v-128q-13 -2 -41 -5t-57 -3zM240 -277q-19 0 -38.5 3t-37.5 9v70q11 -3 26 -5.5t31 -2.5q26 0 44 8t18 27t-14.5 30t-35.5 16
t-42 6v116h59v-66q62 0 99.5 -25.5t37.5 -78.5q0 -38 -20.5 -62t-54 -34.5t-72.5 -10.5z" />
    <glyph glyph-name="Tcaron" unicode="&#x164;" horiz-adv-x="445" 
d="M133 0v677h-122v133h423v-133h-121v-677h-180zM143 871l-88 187h116l51 -110l51 110h116l-88 -187h-158z" />
    <glyph glyph-name="tcaron" unicode="&#x165;" horiz-adv-x="436" 
d="M232 -6q-65 0 -100 19t-48.5 55.5t-13.5 88.5v314h-56v107h56v176h165v-176h82v-107h-82v-298q0 -25 14.5 -36t36.5 -11q13 0 24 1.5t20 2.5v-128q-13 -2 -41 -5t-57 -3zM305 625l-10 52q26 7 48.5 26t22.5 62h-86v154h154v-134q0 -74 -32 -114.5t-97 -45.5z" />
    <glyph glyph-name="Tbar" unicode="&#x166;" horiz-adv-x="445" 
d="M42 369v87h360v-87h-360zM133 0v677h-122v133h423v-133h-121v-677h-180z" />
    <glyph glyph-name="tbar" unicode="&#x167;" horiz-adv-x="337" 
d="M13 303v70h302v-70h-302zM232 -6q-65 0 -100 19t-48.5 55.5t-13.5 88.5v314h-56v107h56v176h165v-176h82v-107h-82v-298q0 -25 14.5 -36t36.5 -11q13 0 24 1.5t20 2.5v-128q-13 -2 -41 -5t-57 -3z" />
    <glyph glyph-name="Utilde" unicode="&#x168;" horiz-adv-x="588" 
d="M294 -12q-93 0 -145.5 30.5t-73.5 89t-21 143.5v559h177v-586q0 -25 4 -50t17.5 -41t41.5 -16q29 0 42 16t16.5 41t3.5 50v586h178v-559q0 -85 -21.5 -143.5t-73.5 -89t-145 -30.5zM375 900q-25 0 -46 12t-40 23.5t-39 11.5q-22 0 -29 -12.5t-7 -28.5h-78q0 41 8 73
t28 50.5t54 18.5q25 0 44.5 -11t38.5 -22t40 -11q17 0 24 11t7 27h72q0 -32 -4.5 -65t-21 -55t-51.5 -22z" />
    <glyph glyph-name="utilde" unicode="&#x169;" horiz-adv-x="504" 
d="M153 -10q-35 0 -59.5 17.5t-36.5 48.5t-12 69v453h163v-434q0 -21 7.5 -32.5t26.5 -11.5q11 0 23 5.5t25 12.5v460h162v-578h-162v53q-31 -29 -65.5 -46t-71.5 -17zM333 668q-25 0 -46 12t-40 23.5t-39 11.5q-22 0 -29 -12.5t-7 -28.5h-78q0 41 8 73t28 50.5t54 18.5
q25 0 44.5 -11t38.5 -22t40 -11q17 0 24 11t7 27h72q0 -32 -4.5 -65t-21 -55t-51.5 -22z" />
    <glyph glyph-name="Umacron" unicode="&#x16a;" horiz-adv-x="588" 
d="M294 -12q-93 0 -145.5 30.5t-73.5 89t-21 143.5v559h177v-586q0 -25 4 -50t17.5 -41t41.5 -16q29 0 42 16t16.5 41t3.5 50v586h178v-559q0 -85 -21.5 -143.5t-73.5 -89t-145 -30.5zM156 898v77h276v-77h-276z" />
    <glyph glyph-name="umacron" unicode="&#x16b;" horiz-adv-x="504" 
d="M153 -10q-35 0 -59.5 17.5t-36.5 48.5t-12 69v453h163v-434q0 -21 7.5 -32.5t26.5 -11.5q11 0 23 5.5t25 12.5v460h162v-578h-162v53q-31 -29 -65.5 -46t-71.5 -17zM114 666v77h276v-77h-276z" />
    <glyph glyph-name="Ubreve" unicode="&#x16c;" horiz-adv-x="588" 
d="M294 -12q-93 0 -145.5 30.5t-73.5 89t-21 143.5v559h177v-586q0 -25 4 -50t17.5 -41t41.5 -16q29 0 42 16t16.5 41t3.5 50v586h178v-559q0 -85 -21.5 -143.5t-73.5 -89t-145 -30.5zM294 875q-71 0 -114 40t-43 116h92q0 -37 14.5 -55t50.5 -18q35 0 50 18.5t15 54.5h92
q0 -76 -43 -116t-114 -40z" />
    <glyph glyph-name="ubreve" unicode="&#x16d;" horiz-adv-x="504" 
d="M153 -10q-35 0 -59.5 17.5t-36.5 48.5t-12 69v453h163v-434q0 -21 7.5 -32.5t26.5 -11.5q11 0 23 5.5t25 12.5v460h162v-578h-162v53q-31 -29 -65.5 -46t-71.5 -17zM252 643q-71 0 -114 40t-43 116h92q0 -37 14.5 -55t50.5 -18q35 0 50 18.5t15 54.5h92q0 -76 -43 -116
t-114 -40z" />
    <glyph glyph-name="Uring" unicode="&#x16e;" horiz-adv-x="588" 
d="M294 -12q-93 0 -145.5 30.5t-73.5 89t-21 143.5v559h177v-586q0 -25 4 -50t17.5 -41t41.5 -16q29 0 42 16t16.5 41t3.5 50v586h178v-559q0 -85 -21.5 -143.5t-73.5 -89t-145 -30.5zM293 854q-47 0 -81.5 27.5t-34.5 81.5q0 55 34.5 82.5t81.5 27.5t82.5 -28t35.5 -82
t-35 -81.5t-83 -27.5zM293 911q25 0 37.5 15.5t12.5 36.5q0 22 -12.5 37.5t-37.5 15.5q-24 0 -36.5 -15.5t-12.5 -37.5q0 -21 12.5 -36.5t36.5 -15.5z" />
    <glyph glyph-name="uring" unicode="&#x16f;" horiz-adv-x="504" 
d="M153 -10q-35 0 -59.5 17.5t-36.5 48.5t-12 69v453h163v-434q0 -21 7.5 -32.5t26.5 -11.5q11 0 23 5.5t25 12.5v460h162v-578h-162v53q-31 -29 -65.5 -46t-71.5 -17zM251 622q-47 0 -81.5 27.5t-34.5 81.5q0 55 34.5 82.5t81.5 27.5t82.5 -28t35.5 -82t-35 -81.5
t-83 -27.5zM251 679q25 0 37.5 15.5t12.5 36.5q0 22 -12.5 37.5t-37.5 15.5q-24 0 -36.5 -15.5t-12.5 -37.5q0 -21 12.5 -36.5t36.5 -15.5z" />
    <glyph glyph-name="Uhungarumlaut" unicode="&#x170;" horiz-adv-x="588" 
d="M294 -12q-93 0 -145.5 30.5t-73.5 89t-21 143.5v559h177v-586q0 -25 4 -50t17.5 -41t41.5 -16q29 0 42 16t16.5 41t3.5 50v586h178v-559q0 -85 -21.5 -143.5t-73.5 -89t-145 -30.5zM336 865l64 216h140l-120 -216h-84zM158 865l60 216h132l-108 -216h-84z" />
    <glyph glyph-name="uhungarumlaut" unicode="&#x171;" horiz-adv-x="504" 
d="M153 -10q-35 0 -59.5 17.5t-36.5 48.5t-12 69v453h163v-434q0 -21 7.5 -32.5t26.5 -11.5q11 0 23 5.5t25 12.5v460h162v-578h-162v53q-31 -29 -65.5 -46t-71.5 -17zM294 633l64 216h140l-120 -216h-84zM116 633l60 216h132l-108 -216h-84z" />
    <glyph glyph-name="Uogonek" unicode="&#x172;" horiz-adv-x="588" 
d="M294 -12q-93 0 -145.5 30.5t-73.5 89t-21 143.5v559h177v-586q0 -25 4 -50t17.5 -41t41.5 -16q29 0 42 16t16.5 41t3.5 50v586h178v-559q0 -85 -21.5 -143.5t-73.5 -89t-145 -30.5zM364 -260q-25 0 -53 3.5t-52 14.5t-39 32.5t-15 57.5q0 26 11 54.5t29 54t38 43.5h73
q-9 -17 -17.5 -37.5t-13.5 -41.5t-5 -42q0 -34 19.5 -46.5t44.5 -12.5q8 0 16 0.5t13 1.5l-16 -79q-6 -1 -14.5 -2t-18.5 -1z" />
    <glyph glyph-name="uogonek" unicode="&#x173;" horiz-adv-x="504" 
d="M153 -10q-35 0 -59.5 17.5t-36.5 48.5t-12 69v453h163v-434q0 -21 7.5 -32.5t26.5 -11.5q11 0 23 5.5t25 12.5v460h162v-578h-162v53q-31 -29 -65.5 -46t-71.5 -17zM417 -260q-25 0 -53 3.5t-52 14.5t-39 32.5t-15 57.5q0 26 11 54.5t29 54t38 43.5h73
q-9 -17 -17.5 -37.5t-13.5 -41.5t-5 -42q0 -34 19.5 -46.5t44.5 -12.5q8 0 16 0.5t13 1.5l-16 -79q-6 -1 -14.5 -2t-18.5 -1z" />
    <glyph glyph-name="Wcircumflex" unicode="&#x174;" horiz-adv-x="697" 
d="M125 0l-98 810h152l48 -472l61 471h119l64 -468l49 469h150l-97 -810h-156l-69 489l-65 -489h-158zM186 881l95 192h133l98 -192h-120l-44 119l-43 -119h-119z" />
    <glyph glyph-name="wcircumflex" unicode="&#x175;" horiz-adv-x="597" 
d="M106 0l-85 578h136l42 -328l45 328h118l39 -336l49 336h126l-86 -578h-140l-50 325l-56 -325h-138zM136 649l95 192h133l98 -192h-120l-44 119l-43 -119h-119z" />
    <glyph glyph-name="Ycircumflex" unicode="&#x176;" horiz-adv-x="493" 
d="M162 0v331l-154 479h169l77 -256l69 256h162l-151 -479v-331h-172zM84 881l95 192h133l98 -192h-120l-44 119l-43 -119h-119z" />
    <glyph glyph-name="ycircumflex" unicode="&#x177;" horiz-adv-x="448" 
d="M67 -168v113q31 0 51.5 4t31 15t10.5 30q0 17 -6 41.5t-15 55.5l-136 487h153l73 -334l55 334h154l-133 -592q-13 -60 -41 -93.5t-68.5 -47t-91.5 -13.5h-37zM61 649l95 192h133l98 -192h-120l-44 119l-43 -119h-119z" />
    <glyph glyph-name="Ydieresis" unicode="&#x178;" horiz-adv-x="493" 
d="M162 0v331l-154 479h169l77 -256l69 256h162l-151 -479v-331h-172zM291 894v148h130v-148h-130zM73 894v148h130v-148h-130z" />
    <glyph glyph-name="Zacute" unicode="&#x179;" horiz-adv-x="433" 
d="M29 0v108l198 581h-189v121h365v-101l-201 -588h203v-121h-376zM163 874l63 201h166l-126 -201h-103z" />
    <glyph glyph-name="zacute" unicode="&#x17a;" horiz-adv-x="392" 
d="M35 0v105l159 354h-147v119h317v-99l-161 -360h163v-119h-331zM142 642l63 201h166l-126 -201h-103z" />
    <glyph glyph-name="Zdotaccent" unicode="&#x17b;" horiz-adv-x="433" 
d="M29 0v108l198 581h-189v121h365v-101l-201 -588h203v-121h-376zM140 884v154h154v-154h-154z" />
    <glyph glyph-name="zdotaccent" unicode="&#x17c;" horiz-adv-x="392" 
d="M35 0v105l159 354h-147v119h317v-99l-161 -360h163v-119h-331zM119 652v154h154v-154h-154z" />
    <glyph glyph-name="Zcaron" unicode="&#x17d;" horiz-adv-x="433" 
d="M29 0v108l198 581h-189v121h365v-101l-201 -588h203v-121h-376zM138 871l-88 187h116l51 -110l51 110h116l-88 -187h-158z" />
    <glyph glyph-name="zcaron" unicode="&#x17e;" horiz-adv-x="392" 
d="M35 0v105l159 354h-147v119h317v-99l-161 -360h163v-119h-331zM117 639l-88 187h116l51 -110l51 110h116l-88 -187h-158z" />
    <glyph glyph-name="longs" unicode="&#x17f;" horiz-adv-x="320" 
d="M72 0v468h-55v110h55v43q0 51 10.5 89t44 59t103.5 21q19 0 37.5 -1t40.5 -4v-121q-7 2 -16.5 3.5t-18.5 1.5q-18 0 -28 -10.5t-10 -34.5v-624h-163z" />
    <glyph glyph-name="uni018F" unicode="&#x18f;" horiz-adv-x="582" 
d="M291 -12q-78 0 -133 28t-84 83.5t-29 136.5v185h305v185q0 33 -7 52.5t-20.5 28t-34.5 8.5q-19 0 -32.5 -8.5t-20.5 -28t-7 -52.5v-115h-183v83q0 82 29 136.5t84.5 82.5t132.5 28q75 0 129 -30.5t83.5 -88t29.5 -138.5v-320q0 -81 -29.5 -138.5t-83.5 -87.5t-129 -30z
M289 114q21 0 34.5 9t20 28.5t6.5 50.5v111h-122v-111q0 -31 6.5 -50.5t20.5 -28.5t34 -9z" />
    <glyph glyph-name="florin" unicode="&#x192;" horiz-adv-x="461" 
d="M98 -180q-18 0 -36 1.5t-41 3.5l13 121q7 -1 16.5 -2.5t17.5 -1.5q19 0 30 10t14 34l50 478h-57v114h69l5 45q5 50 19.5 87.5t50.5 58.5t106 21q18 0 36.5 -1t40.5 -4l-13 -121q-7 2 -16 3.5t-18 1.5q-18 0 -29.5 -10.5t-13.5 -34.5l-5 -46h63v-114h-75l-51 -476
q-5 -51 -19 -88.5t-50 -58.5t-107 -21z" />
    <glyph glyph-name="Ohorn" unicode="&#x1a0;" 
d="M292 -12q-91 0 -144 32t-76 92t-23 143v301q0 84 23 143t76 90.5t144 31.5q92 0 145.5 -31.5t76.5 -90.5t23 -143v-301q0 -83 -23 -143t-76.5 -92t-145.5 -32zM292 115q28 0 41 14t17 36t4 45v390q0 24 -4 45.5t-17 35.5t-41 14q-26 0 -39 -14t-17 -35.5t-4 -45.5v-390
q0 -23 3.5 -45t16 -36t40.5 -14zM344 745v65h20q30 0 42 21.5t12 64.5h114q0 -76 -47 -113.5t-121 -37.5h-20z" />
    <glyph glyph-name="ohorn" unicode="&#x1a1;" horiz-adv-x="483" 
d="M241 -10q-62 0 -107.5 21t-70 63t-24.5 105v220q0 63 24.5 105t70 63t107.5 21t107.5 -21t70.5 -63t25 -105v-220q0 -63 -25 -105t-70.5 -63t-107.5 -21zM242 98q16 0 25 8.5t12.5 24t3.5 37.5v242q0 22 -3.5 37.5t-12.5 24t-25 8.5t-25 -8.5t-13 -24t-4 -37.5v-242
q0 -22 4 -37.5t13 -24t25 -8.5zM266 513v65h10q30 0 42 21.5t12 64.5h114q0 -76 -47 -113.5t-121 -37.5h-10z" />
    <glyph glyph-name="Uhorn" unicode="&#x1af;" horiz-adv-x="588" 
d="M294 -12q-93 0 -145.5 30.5t-73.5 89t-21 143.5v559h177v-586q0 -25 4 -50t17.5 -41t41.5 -16q29 0 42 16t16.5 41t3.5 50v586h178v-559q0 -85 -21.5 -143.5t-73.5 -89t-145 -30.5zM425 745v65h10q30 0 42 21.5t12 64.5h114q0 -76 -47 -113.5t-121 -37.5h-10z" />
    <glyph glyph-name="uhorn" unicode="&#x1b0;" horiz-adv-x="504" 
d="M153 -10q-35 0 -59.5 17.5t-36.5 48.5t-12 69v453h163v-434q0 -21 7.5 -32.5t26.5 -11.5q11 0 23 5.5t25 12.5v460h162v-578h-162v53q-31 -29 -65.5 -46t-71.5 -17zM340 513v65h10q30 0 42 21.5t12 64.5h114q0 -76 -47 -113.5t-121 -37.5h-10z" />
    <glyph glyph-name="uni01B7" unicode="&#x1b7;" horiz-adv-x="503" 
d="M247 -15q-85 0 -134 32t-69.5 89.5t-20.5 132.5v29h167v-11v-18q0 -69 12.5 -98t46.5 -29q17 0 27.5 7.5t16.5 22t8 38t2 54.5q0 59 -8.5 94t-32.5 51t-72 16h-87v89l152 205h-208v121h388v-101l-194 -254l-39 38h64q82 0 125.5 -33t60 -90.5t16.5 -131.5t-21.5 -131
t-70 -89.5t-129.5 -32.5z" />
    <glyph glyph-name="uni01C4" unicode="&#x1c4;" horiz-adv-x="1011" 
d="M60 0v810h205q106 0 165 -26.5t83 -83t24 -146.5v-294q0 -91 -24 -148.5t-82.5 -84.5t-163.5 -27h-207zM239 124h28q41 0 59 12t22.5 36t4.5 60v353q0 36 -5.5 58t-23.5 32t-58 10h-27v-561zM607 0v108l198 581h-189v121h365v-101l-201 -588h203v-121h-376zM716 871
l-88 187h116l51 -110l51 110h116l-88 -187h-158z" />
    <glyph glyph-name="uni01C5" unicode="&#x1c5;" horiz-adv-x="978" 
d="M60 0v810h205q106 0 165 -26.5t83 -83t24 -146.5v-294q0 -91 -24 -148.5t-82.5 -84.5t-163.5 -27h-207zM239 124h28q41 0 59 12t22.5 36t4.5 60v353q0 36 -5.5 58t-23.5 32t-58 10h-27v-561zM621 0v105l159 354h-147v119h317v-99l-161 -360h163v-119h-331zM703 639
l-88 187h116l51 -110l51 110h116l-88 -187h-158z" />
    <glyph glyph-name="uni01C6" unicode="&#x1c6;" horiz-adv-x="895" 
d="M176 -10q-64 0 -99 45t-35 133v239q0 54 15 94.5t45 63.5t74 23q32 0 61 -12.5t53 -33.5v268h163v-810h-163v45q-27 -26 -56 -40.5t-58 -14.5zM247 94q8 0 19.5 4t23.5 11v365q-10 5 -21 9t-21 4q-22 0 -32 -18.5t-10 -44.5v-266q0 -18 4 -32.5t13 -23t24 -8.5zM538 0
v105l159 354h-147v119h317v-99l-161 -360h163v-119h-331zM620 639l-88 187h116l51 -110l51 110h116l-88 -187h-158z" />
    <glyph glyph-name="uni01C7" unicode="&#x1c7;" horiz-adv-x="792" 
d="M60 0v810h179v-689h186v-121h-365zM456 -21v125q27 0 46 3t30 11.5t16 25t5 42.5v624h179v-632q0 -66 -16.5 -110.5t-57.5 -66.5t-115 -22h-87z" />
    <glyph glyph-name="uni01C8" unicode="&#x1c8;" horiz-adv-x="712" 
d="M60 0v810h179v-689h186v-121h-365zM513 -180q-22 0 -44.5 3.5t-42.5 9.5v117q8 -1 15.5 -2.5t13.5 -1.5q14 0 24 5t15.5 15.5t5.5 28.5v583h162v-603q0 -68 -37.5 -111.5t-111.5 -43.5zM499 676v113h164v-113h-164z" />
    <glyph glyph-name="uni01C9" unicode="&#x1c9;" horiz-adv-x="543" 
d="M58 0v810h162v-810h-162zM344 -180q-22 0 -44.5 3.5t-42.5 9.5v117q8 -1 15.5 -2.5t13.5 -1.5q14 0 24 5t15.5 15.5t5.5 28.5v583h162v-603q0 -68 -37.5 -111.5t-111.5 -43.5zM330 676v113h164v-113h-164z" />
    <glyph glyph-name="uni01CA" unicode="&#x1ca;" horiz-adv-x="910" 
d="M60 0v810h126l166 -390v390h148v-810h-121l-166 420v-420h-153zM574 -21v125q27 0 46 3t30 11.5t16 25t5 42.5v624h179v-632q0 -66 -16.5 -110.5t-57.5 -66.5t-115 -22h-87z" />
    <glyph glyph-name="uni01CB" unicode="&#x1cb;" horiz-adv-x="830" 
d="M60 0v810h126l166 -390v390h148v-810h-121l-166 420v-420h-153zM631 -180q-22 0 -44.5 3.5t-42.5 9.5v117q8 -1 15.5 -2.5t13.5 -1.5q14 0 24 5t15.5 15.5t5.5 28.5v583h162v-603q0 -68 -37.5 -111.5t-111.5 -43.5zM617 676v113h164v-113h-164z" />
    <glyph glyph-name="uni01CC" unicode="&#x1cc;" horiz-adv-x="776" 
d="M51 0v578h163v-58q32 32 66.5 50t72.5 18q36 0 59.5 -17.5t35.5 -48t12 -69.5v-453h-162v430q0 21 -7 32t-26 11q-10 0 -23.5 -5.5t-27.5 -15.5v-452h-163zM577 -180q-22 0 -44.5 3.5t-42.5 9.5v117q8 -1 15.5 -2.5t13.5 -1.5q14 0 24 5t15.5 15.5t5.5 28.5v583h162v-603
q0 -68 -37.5 -111.5t-111.5 -43.5zM563 676v113h164v-113h-164z" />
    <glyph glyph-name="uni01CD" unicode="&#x1cd;" horiz-adv-x="551" 
d="M21 0l153 810h204l151 -810h-165l-27 171h-119l-28 -171h-169zM234 278h86l-43 316zM197 871l-88 187h116l51 -110l51 110h116l-88 -187h-158z" />
    <glyph glyph-name="uni01CE" unicode="&#x1ce;" horiz-adv-x="460" 
d="M154 -10q-44 0 -74 21t-45 53.5t-15 66.5q0 54 21.5 91t56.5 62t77 42.5t83 31.5v58q0 15 -3 26.5t-10 18t-21 6.5t-21.5 -6t-10.5 -16.5t-4 -23.5l-4 -42l-152 6q5 104 55.5 153.5t151.5 49.5q88 0 131.5 -48.5t43.5 -125.5v-270q0 -36 1.5 -63t4 -47t4.5 -34h-146
q-3 23 -7 50t-6 32q-10 -36 -37.5 -64t-73.5 -28zM212 100q10 0 18.5 4t15.5 11t12 14v158q-20 -12 -37 -24.5t-29 -27.5t-18.5 -32.5t-6.5 -39.5q0 -29 12 -46t33 -17zM159 639l-88 187h116l51 -110l51 110h116l-88 -187h-158z" />
    <glyph glyph-name="uni01D3" unicode="&#x1d3;" horiz-adv-x="588" 
d="M294 -12q-93 0 -145.5 30.5t-73.5 89t-21 143.5v559h177v-586q0 -25 4 -50t17.5 -41t41.5 -16q29 0 42 16t16.5 41t3.5 50v586h178v-559q0 -85 -21.5 -143.5t-73.5 -89t-145 -30.5zM215 871l-88 187h116l51 -110l51 110h116l-88 -187h-158z" />
    <glyph glyph-name="uni01D4" unicode="&#x1d4;" horiz-adv-x="504" 
d="M153 -10q-35 0 -59.5 17.5t-36.5 48.5t-12 69v453h163v-434q0 -21 7.5 -32.5t26.5 -11.5q11 0 23 5.5t25 12.5v460h162v-578h-162v53q-31 -29 -65.5 -46t-71.5 -17zM173 639l-88 187h116l51 -110l51 110h116l-88 -187h-158z" />
    <glyph glyph-name="uni01E4" unicode="&#x1e4;" horiz-adv-x="582" 
d="M321 189v89h265v-89h-265zM271 -12q-84 0 -132.5 35t-69 98.5t-20.5 146.5v272q0 86 22 149t75.5 97.5t145.5 34.5q90 0 141.5 -30t73.5 -83t22 -124v-52h-175v66q0 26 -3.5 48t-16 35.5t-40.5 13.5q-29 0 -42 -15.5t-16.5 -38.5t-3.5 -48v-375q0 -27 5.5 -50.5t20 -38
t41.5 -14.5q28 0 43 15t21 39t6 51v95h-73v105h234v-420h-118l-10 67q-16 -34 -47 -56.5t-84 -22.5z" />
    <glyph glyph-name="uni01E5" unicode="&#x1e5;" horiz-adv-x="501" 
d="M239 -200q-65 0 -113 13.5t-74.5 41.5t-26.5 73q0 28 11 50t31 39.5t46 29.5q-37 11 -57.5 32t-20.5 46q0 35 17 60.5t47 51.5q-28 25 -42.5 61.5t-14.5 88.5q0 65 24 110t70.5 68t112.5 23q45 0 79 -11t58 -34q11 17 29 33t41 27l21 10l38 -78q-9 -3 -25 -10t-33.5 -15
t-31.5 -16q11 -22 17 -50t6 -58q0 -62 -22.5 -107t-66.5 -68.5t-110 -23.5q-28 0 -53 4.5t-46 11.5q-6 -7 -10.5 -13.5t-4.5 -14.5q0 -10 12 -14t43 -7l152 -18q74 -8 109 -49t35 -117q0 -55 -24.5 -93t-79 -57.5t-143.5 -19.5zM-9 -53v51h531v-51h-531zM260 -89
q59 0 86.5 13.5t27.5 47.5q0 18 -8 28t-26.5 15.5t-52.5 8.5l-107 11q-10 -8 -19.5 -17.5t-15 -20.5t-5.5 -23q0 -30 25 -46.5t95 -16.5zM249 284q14 0 23 5.5t13.5 17.5t6.5 32t2 48q0 29 -2 48.5t-6.5 32t-13.5 18t-23 5.5t-23 -5.5t-13.5 -17.5t-6.5 -32t-2 -49
q0 -28 2 -47.5t6.5 -32t13.5 -18t23 -5.5z" />
    <glyph glyph-name="Gcaron" unicode="&#x1e6;" horiz-adv-x="582" 
d="M271 -12q-84 0 -132.5 35t-69 98.5t-20.5 146.5v272q0 86 22 149t75.5 97.5t145.5 34.5q90 0 141.5 -30t73.5 -83t22 -124v-52h-175v66q0 26 -3.5 48t-16 35.5t-40.5 13.5q-29 0 -42 -15.5t-16.5 -38.5t-3.5 -48v-375q0 -27 5.5 -50.5t20 -38t41.5 -14.5q28 0 43 15
t21 39t6 51v95h-73v105h234v-420h-118l-10 67q-16 -34 -47 -56.5t-84 -22.5zM212 871l-88 187h116l51 -110l51 110h116l-88 -187h-158z" />
    <glyph glyph-name="gcaron" unicode="&#x1e7;" horiz-adv-x="502" 
d="M240 -200q-65 0 -113.5 13t-75 39t-26.5 65q0 30 13.5 53.5t38 40.5t55.5 29l63 -11q-11 -9 -20.5 -18.5t-15.5 -20t-6 -24.5q0 -22 25 -33t83 -11q48 0 74.5 8.5t26.5 33.5q0 14 -7 22t-23 13t-44 8l-144 18q-46 6 -73 33t-27 67q0 35 21.5 65t56.5 59l57 -32
q-12 -12 -19 -22.5t-7 -23.5q0 -12 12 -19t43 -11l137 -18q74 -9 108.5 -49t34.5 -103q0 -56 -24.5 -94t-79 -57.5t-144.5 -19.5zM250 187q-68 0 -114.5 24t-70 68.5t-23.5 107.5q0 65 24 110t70.5 68t113.5 23q64 0 108 -24t67.5 -68.5t23.5 -108.5q0 -63 -22.5 -107.5
t-66.5 -68.5t-110 -24zM250 284q14 0 22.5 5.5t13 17.5t6.5 32t2 48q0 29 -2 48.5t-6.5 32t-13 18t-22.5 5.5q-13 0 -22 -5.5t-14 -17.5t-7 -32t-2 -49q0 -28 2 -47.5t6.5 -32t13.5 -18t23 -5.5zM414 487l-34 44q15 29 37.5 46.5t60.5 35.5l39 -78q-10 -3 -29.5 -11.5
t-40 -18.5t-33.5 -18zM172 639l-88 187h116l51 -110l51 110h116l-88 -187h-158z" />
    <glyph glyph-name="uni01E8" unicode="&#x1e8;" horiz-adv-x="567" 
d="M60 0v810h179v-331l136 331h175l-150 -366l157 -444h-182l-117 358l-19 -32v-326h-179zM218 871l-88 187h116l51 -110l51 110h116l-88 -187h-158z" />
    <glyph glyph-name="uni01E9" unicode="&#x1e9;" horiz-adv-x="510" 
d="M51 0v810h157v-449l118 217h181l-139 -237l138 -341h-176l-86 275l-36 -55v-220h-157zM252 812l-88 187h116l51 -110l51 110h116l-88 -187h-158z" />
    <glyph glyph-name="uni01EA" unicode="&#x1ea;" 
d="M292 -12q-91 0 -144 32t-76 92t-23 143v301q0 84 23 143t76 90.5t144 31.5q92 0 145.5 -31.5t76.5 -90.5t23 -143v-301q0 -83 -23 -143t-76.5 -92t-145.5 -32zM292 115q28 0 41 14t17 36t4 45v390q0 24 -4 45.5t-17 35.5t-41 14q-26 0 -39 -14t-17 -35.5t-4 -45.5v-390
q0 -23 3.5 -45t16 -36t40.5 -14zM363 -260q-25 0 -53 3.5t-52 14.5t-39 32.5t-15 57.5q0 26 11 54.5t29 54t38 43.5h73q-9 -17 -17.5 -37.5t-13.5 -41.5t-5 -42q0 -34 19.5 -46.5t44.5 -12.5q8 0 16 0.5t13 1.5l-16 -79q-6 -1 -14.5 -2t-18.5 -1z" />
    <glyph glyph-name="uni01EB" unicode="&#x1eb;" horiz-adv-x="483" 
d="M241 -10q-62 0 -107.5 21t-70 63t-24.5 105v220q0 63 24.5 105t70 63t107.5 21t107.5 -21t70.5 -63t25 -105v-220q0 -63 -25 -105t-70.5 -63t-107.5 -21zM242 98q16 0 25 8.5t12.5 24t3.5 37.5v242q0 22 -3.5 37.5t-12.5 24t-25 8.5t-25 -8.5t-13 -24t-4 -37.5v-242
q0 -22 4 -37.5t13 -24t25 -8.5zM321 -258q-25 0 -53 3.5t-52 14.5t-39 32.5t-15 57.5q0 26 11 54.5t29 54t38 43.5h73q-9 -17 -17.5 -37.5t-13.5 -41.5t-5 -42q0 -34 19.5 -46.5t44.5 -12.5q8 0 16 0.5t13 1.5l-16 -79q-6 -1 -14.5 -2t-18.5 -1z" />
    <glyph glyph-name="uni01EE" unicode="&#x1ee;" horiz-adv-x="503" 
d="M247 -15q-85 0 -134 32t-69.5 89.5t-20.5 132.5v29h167v-11v-18q0 -69 12.5 -98t46.5 -29q17 0 27.5 7.5t16.5 22t8 38t2 54.5q0 59 -8.5 94t-32.5 51t-72 16h-87v89l152 205h-208v121h388v-101l-194 -254l-39 38h64q82 0 125.5 -33t60 -90.5t16.5 -131.5t-21.5 -131
t-70 -89.5t-129.5 -32.5zM173 871l-88 187h116l51 -110l51 110h116l-88 -187h-158z" />
    <glyph glyph-name="uni01EF" unicode="&#x1ef;" horiz-adv-x="485" 
d="M238 -205q-81 0 -128 32.5t-67.5 90t-20.5 132.5v29h160v-11v-18q0 -77 12 -109t46 -32q23 0 35 14.5t16 44.5t4 76q0 62 -8.5 98.5t-32 52.5t-69.5 16h-64v95l149 187l20 -34h-233v119h356v-99l-175 -218l-49 36h49q87 0 134.5 -29t66.5 -84.5t19 -134.5
q0 -74 -21 -131.5t-69.5 -90t-129.5 -32.5zM164 639l-88 187h116l51 -110l51 110h116l-88 -187h-158z" />
    <glyph glyph-name="uni01F1" unicode="&#x1f1;" horiz-adv-x="1011" 
d="M60 0v810h205q106 0 165 -26.5t83 -83t24 -146.5v-294q0 -91 -24 -148.5t-82.5 -84.5t-163.5 -27h-207zM239 124h28q41 0 59 12t22.5 36t4.5 60v353q0 36 -5.5 58t-23.5 32t-58 10h-27v-561zM607 0v108l198 581h-189v121h365v-101l-201 -588h203v-121h-376z" />
    <glyph glyph-name="uni01F2" unicode="&#x1f2;" horiz-adv-x="978" 
d="M60 0v810h205q106 0 165 -26.5t83 -83t24 -146.5v-294q0 -91 -24 -148.5t-82.5 -84.5t-163.5 -27h-207zM239 124h28q41 0 59 12t22.5 36t4.5 60v353q0 36 -5.5 58t-23.5 32t-58 10h-27v-561zM621 0v105l159 354h-147v119h317v-99l-161 -360h163v-119h-331z" />
    <glyph glyph-name="uni01F3" unicode="&#x1f3;" horiz-adv-x="895" 
d="M176 -10q-64 0 -99 45t-35 133v239q0 54 15 94.5t45 63.5t74 23q32 0 61 -12.5t53 -33.5v268h163v-810h-163v45q-27 -26 -56 -40.5t-58 -14.5zM247 94q8 0 19.5 4t23.5 11v365q-10 5 -21 9t-21 4q-22 0 -32 -18.5t-10 -44.5v-266q0 -18 4 -32.5t13 -23t24 -8.5zM538 0
v105l159 354h-147v119h317v-99l-161 -360h163v-119h-331z" />
    <glyph glyph-name="uni01F4" unicode="&#x1f4;" horiz-adv-x="582" 
d="M271 -12q-84 0 -132.5 35t-69 98.5t-20.5 146.5v272q0 86 22 149t75.5 97.5t145.5 34.5q90 0 141.5 -30t73.5 -83t22 -124v-52h-175v66q0 26 -3.5 48t-16 35.5t-40.5 13.5q-29 0 -42 -15.5t-16.5 -38.5t-3.5 -48v-375q0 -27 5.5 -50.5t20 -38t41.5 -14.5q28 0 43 15
t21 39t6 51v95h-73v105h234v-420h-118l-10 67q-16 -34 -47 -56.5t-84 -22.5zM237 874l63 201h166l-126 -201h-103z" />
    <glyph glyph-name="uni01F5" unicode="&#x1f5;" horiz-adv-x="502" 
d="M240 -200q-65 0 -113.5 13t-75 39t-26.5 65q0 30 13.5 53.5t38 40.5t55.5 29l63 -11q-11 -9 -20.5 -18.5t-15.5 -20t-6 -24.5q0 -22 25 -33t83 -11q48 0 74.5 8.5t26.5 33.5q0 14 -7 22t-23 13t-44 8l-144 18q-46 6 -73 33t-27 67q0 35 21.5 65t56.5 59l57 -32
q-12 -12 -19 -22.5t-7 -23.5q0 -12 12 -19t43 -11l137 -18q74 -9 108.5 -49t34.5 -103q0 -56 -24.5 -94t-79 -57.5t-144.5 -19.5zM250 187q-68 0 -114.5 24t-70 68.5t-23.5 107.5q0 65 24 110t70.5 68t113.5 23q64 0 108 -24t67.5 -68.5t23.5 -108.5q0 -63 -22.5 -107.5
t-66.5 -68.5t-110 -24zM250 284q14 0 22.5 5.5t13 17.5t6.5 32t2 48q0 29 -2 48.5t-6.5 32t-13 18t-22.5 5.5q-13 0 -22 -5.5t-14 -17.5t-7 -32t-2 -49q0 -28 2 -47.5t6.5 -32t13.5 -18t23 -5.5zM414 487l-34 44q15 29 37.5 46.5t60.5 35.5l39 -78q-10 -3 -29.5 -11.5
t-40 -18.5t-33.5 -18zM197 642l63 201h166l-126 -201h-103z" />
    <glyph glyph-name="Aringacute" unicode="&#x1fa;" horiz-adv-x="551" 
d="M21 0l153 810h204l151 -810h-165l-27 171h-119l-28 -171h-169zM234 278h86l-43 316zM275 854q-47 0 -81.5 27.5t-34.5 81.5q0 55 34.5 82.5t81.5 27.5t82.5 -28t35.5 -82t-35 -81.5t-83 -27.5zM275 911q25 0 37.5 15.5t12.5 36.5q0 22 -12.5 37.5t-37.5 15.5
q-24 0 -36.5 -15.5t-12.5 -37.5q0 -21 12.5 -36.5t36.5 -15.5zM222 1117l63 201h166l-126 -201h-103z" />
    <glyph glyph-name="aringacute" unicode="&#x1fb;" horiz-adv-x="460" 
d="M154 -10q-44 0 -74 21t-45 53.5t-15 66.5q0 54 21.5 91t56.5 62t77 42.5t83 31.5v58q0 15 -3 26.5t-10 18t-21 6.5t-21.5 -6t-10.5 -16.5t-4 -23.5l-4 -42l-152 6q5 104 55.5 153.5t151.5 49.5q88 0 131.5 -48.5t43.5 -125.5v-270q0 -36 1.5 -63t4 -47t4.5 -34h-146
q-3 23 -7 50t-6 32q-10 -36 -37.5 -64t-73.5 -28zM212 100q10 0 18.5 4t15.5 11t12 14v158q-20 -12 -37 -24.5t-29 -27.5t-18.5 -32.5t-6.5 -39.5q0 -29 12 -46t33 -17zM237 622q-47 0 -81.5 27.5t-34.5 81.5q0 55 34.5 82.5t81.5 27.5t82.5 -28t35.5 -82t-35 -81.5
t-83 -27.5zM237 679q25 0 37.5 15.5t12.5 36.5q0 22 -12.5 37.5t-37.5 15.5q-24 0 -36.5 -15.5t-12.5 -37.5q0 -21 12.5 -36.5t36.5 -15.5zM184 885l63 201h166l-126 -201h-103z" />
    <glyph glyph-name="AEacute" unicode="&#x1fc;" horiz-adv-x="708" 
d="M-13 0l353 810h349v-122h-170v-200h120v-126h-120v-240h170v-122h-323v173h-131l-69 -173h-179zM271 286h95v259zM388 874l63 201h166l-126 -201h-103z" />
    <glyph glyph-name="aeacute" unicode="&#x1fd;" horiz-adv-x="678" 
d="M189 -12q-70 0 -111.5 39t-41.5 106q0 57 24 93t63.5 57t85.5 32l60 14v81q0 32 -8.5 44.5t-25.5 12.5q-13 0 -21.5 -7.5t-13 -25.5t-4.5 -52l-158 5q0 97 43.5 149t137.5 52q61 0 94.5 -25t38.5 -60h-17q3 24 23 43t52.5 30.5t71.5 11.5q81 0 119.5 -39.5t38.5 -99.5
q0 -48 -19.5 -78t-53.5 -47t-77 -27l-66 -15v-114q0 -30 5.5 -47t25.5 -17q14 0 20 7.5t8 21.5t2 31v38h150v-47q0 -53 -18.5 -90.5t-55 -57t-90.5 -19.5q-29 0 -58 10.5t-50 32t-28 52.5q-11 -31 -34 -52t-52 -32t-60 -11zM225 98q14 0 23.5 6.5t15 20t5.5 35.5v97l-31 -13
q-21 -9 -34 -21.5t-19 -28t-6 -36.5q0 -17 5 -30.5t15 -21.5t26 -8zM423 356l16 3q34 7 50 22t16 43q0 20 -9.5 33t-29.5 13q-15 0 -24.5 -6.5t-14 -18.5t-4.5 -31v-58zM287 642l63 201h166l-126 -201h-103z" />
    <glyph glyph-name="Oslashacute" unicode="&#x1fe;" horiz-adv-x="572" 
d="M120 -90l-39 16l359 958l40 -15zM292 -12q-91 0 -144 32t-76 92t-23 143v301q0 84 23 143t76 90.5t144 31.5q92 0 145.5 -31.5t76.5 -90.5t23 -143v-301q0 -83 -23 -143t-76.5 -92t-145.5 -32zM292 115q28 0 41 14t17 36t4 45v390q0 24 -4 45.5t-17 35.5t-41 14
q-26 0 -39 -14t-17 -35.5t-4 -45.5v-390q0 -23 3.5 -45t16 -36t40.5 -14zM232 874l63 201h166l-126 -201h-103z" />
    <glyph glyph-name="oslashacute" unicode="&#x1ff;" horiz-adv-x="477" 
d="M104 -89l-37 16l300 746l39 -16zM241 -10q-62 0 -107.5 21t-70 63t-24.5 105v220q0 63 24.5 105t70 63t107.5 21t107.5 -21t70.5 -63t25 -105v-220q0 -63 -25 -105t-70.5 -63t-107.5 -21zM242 98q16 0 25 8.5t12.5 24t3.5 37.5v242q0 22 -3.5 37.5t-12.5 24t-25 8.5
t-25 -8.5t-13 -24t-4 -37.5v-242q0 -22 4 -37.5t13 -24t25 -8.5zM185 642l63 201h166l-126 -201h-103z" />
    <glyph glyph-name="uni0200" unicode="&#x200;" horiz-adv-x="551" 
d="M21 0l153 810h204l151 -810h-165l-27 171h-119l-28 -171h-169zM234 278h86l-43 316zM153 870l-100 207h124l64 -207h-88zM328 870l-92 207h119l59 -207h-86z" />
    <glyph glyph-name="uni0201" unicode="&#x201;" horiz-adv-x="460" 
d="M154 -10q-44 0 -74 21t-45 53.5t-15 66.5q0 54 21.5 91t56.5 62t77 42.5t83 31.5v58q0 15 -3 26.5t-10 18t-21 6.5t-21.5 -6t-10.5 -16.5t-4 -23.5l-4 -42l-152 6q5 104 55.5 153.5t151.5 49.5q88 0 131.5 -48.5t43.5 -125.5v-270q0 -36 1.5 -63t4 -47t4.5 -34h-146
q-3 23 -7 50t-6 32q-10 -36 -37.5 -64t-73.5 -28zM212 100q10 0 18.5 4t15.5 11t12 14v158q-20 -12 -37 -24.5t-29 -27.5t-18.5 -32.5t-6.5 -39.5q0 -29 12 -46t33 -17zM115 638l-100 207h124l64 -207h-88zM290 638l-92 207h119l59 -207h-86z" />
    <glyph glyph-name="uni0202" unicode="&#x202;" horiz-adv-x="551" 
d="M21 0l153 810h204l151 -810h-165l-27 171h-119l-28 -171h-169zM234 278h86l-43 316zM119 881q0 52 19 87t54.5 53.5t83.5 18.5q49 0 84 -18.5t54 -53.5t19 -87h-92q0 39 -15 57.5t-50 18.5t-50 -18t-15 -58h-92z" />
    <glyph glyph-name="uni0203" unicode="&#x203;" horiz-adv-x="460" 
d="M154 -10q-44 0 -74 21t-45 53.5t-15 66.5q0 54 21.5 91t56.5 62t77 42.5t83 31.5v58q0 15 -3 26.5t-10 18t-21 6.5t-21.5 -6t-10.5 -16.5t-4 -23.5l-4 -42l-152 6q5 104 55.5 153.5t151.5 49.5q88 0 131.5 -48.5t43.5 -125.5v-270q0 -36 1.5 -63t4 -47t4.5 -34h-146
q-3 23 -7 50t-6 32q-10 -36 -37.5 -64t-73.5 -28zM212 100q10 0 18.5 4t15.5 11t12 14v158q-20 -12 -37 -24.5t-29 -27.5t-18.5 -32.5t-6.5 -39.5q0 -29 12 -46t33 -17zM81 649q0 52 19 87t54.5 53.5t83.5 18.5q49 0 84 -18.5t54 -53.5t19 -87h-92q0 39 -15 57.5t-50 18.5
t-50 -18t-15 -58h-92z" />
    <glyph glyph-name="uni0204" unicode="&#x204;" horiz-adv-x="447" 
d="M60 0v810h364v-122h-185v-201h141v-124h-141v-242h187v-121h-366zM121 870l-100 207h124l64 -207h-88zM296 870l-92 207h119l59 -207h-86z" />
    <glyph glyph-name="uni0205" unicode="&#x205;" horiz-adv-x="470" 
d="M240 -10q-63 0 -108 22.5t-69 66t-24 104.5v212q0 62 24 105t69.5 65.5t107.5 22.5q64 0 106.5 -22t64 -65t21.5 -106v-116h-232v-111q0 -22 5 -36t14 -20t21 -6t21.5 5.5t15 17.5t5.5 33v61h150v-56q0 -88 -51 -132.5t-141 -44.5zM200 355h82v58q0 23 -5.5 36t-15 18
t-22.5 5q-12 0 -20.5 -6t-13.5 -20.5t-5 -41.5v-49zM115 638l-100 207h124l64 -207h-88zM290 638l-92 207h119l59 -207h-86z" />
    <glyph glyph-name="uni0206" unicode="&#x206;" horiz-adv-x="447" 
d="M60 0v810h364v-122h-185v-201h141v-124h-141v-242h187v-121h-366zM87 881q0 52 19 87t54.5 53.5t83.5 18.5q49 0 84 -18.5t54 -53.5t19 -87h-92q0 39 -15 57.5t-50 18.5t-50 -18t-15 -58h-92z" />
    <glyph glyph-name="uni0207" unicode="&#x207;" horiz-adv-x="470" 
d="M240 -10q-63 0 -108 22.5t-69 66t-24 104.5v212q0 62 24 105t69.5 65.5t107.5 22.5q64 0 106.5 -22t64 -65t21.5 -106v-116h-232v-111q0 -22 5 -36t14 -20t21 -6t21.5 5.5t15 17.5t5.5 33v61h150v-56q0 -88 -51 -132.5t-141 -44.5zM200 355h82v58q0 23 -5.5 36t-15 18
t-22.5 5q-12 0 -20.5 -6t-13.5 -20.5t-5 -41.5v-49zM81 649q0 52 19 87t54.5 53.5t83.5 18.5q49 0 84 -18.5t54 -53.5t19 -87h-92q0 39 -15 57.5t-50 18.5t-50 -18t-15 -58h-92z" />
    <glyph glyph-name="uni0208" unicode="&#x208;" horiz-adv-x="301" 
d="M61 0v810h179v-810h-179zM27 870l-100 207h124l64 -207h-88zM202 870l-92 207h119l59 -207h-86z" />
    <glyph glyph-name="uni0209" unicode="&#x209;" horiz-adv-x="280" 
d="M59 0v578h163v-578h-163zM18 638l-100 207h124l64 -207h-88zM193 638l-92 207h119l59 -207h-86z" />
    <glyph glyph-name="uni020A" unicode="&#x20a;" horiz-adv-x="301" 
d="M61 0v810h179v-810h-179zM-7 881q0 52 19 87t54.5 53.5t83.5 18.5q49 0 84 -18.5t54 -53.5t19 -87h-92q0 39 -15 57.5t-50 18.5t-50 -18t-15 -58h-92z" />
    <glyph glyph-name="uni020B" unicode="&#x20b;" horiz-adv-x="280" 
d="M59 0v578h163v-578h-163zM-16 649q0 52 19 87t54.5 53.5t83.5 18.5q49 0 84 -18.5t54 -53.5t19 -87h-92q0 39 -15 57.5t-50 18.5t-50 -18t-15 -58h-92z" />
    <glyph glyph-name="uni020C" unicode="&#x20c;" 
d="M292 -12q-91 0 -144 32t-76 92t-23 143v301q0 84 23 143t76 90.5t144 31.5q92 0 145.5 -31.5t76.5 -90.5t23 -143v-301q0 -83 -23 -143t-76.5 -92t-145.5 -32zM292 115q28 0 41 14t17 36t4 45v390q0 24 -4 45.5t-17 35.5t-41 14q-26 0 -39 -14t-17 -35.5t-4 -45.5v-390
q0 -23 3.5 -45t16 -36t40.5 -14zM170 870l-100 207h124l64 -207h-88zM345 870l-92 207h119l59 -207h-86z" />
    <glyph glyph-name="uni020D" unicode="&#x20d;" horiz-adv-x="483" 
d="M241 -10q-62 0 -107.5 21t-70 63t-24.5 105v220q0 63 24.5 105t70 63t107.5 21t107.5 -21t70.5 -63t25 -105v-220q0 -63 -25 -105t-70.5 -63t-107.5 -21zM242 98q16 0 25 8.5t12.5 24t3.5 37.5v242q0 22 -3.5 37.5t-12.5 24t-25 8.5t-25 -8.5t-13 -24t-4 -37.5v-242
q0 -22 4 -37.5t13 -24t25 -8.5zM118 638l-100 207h124l64 -207h-88zM293 638l-92 207h119l59 -207h-86z" />
    <glyph glyph-name="uni020E" unicode="&#x20e;" 
d="M292 -12q-91 0 -144 32t-76 92t-23 143v301q0 84 23 143t76 90.5t144 31.5q92 0 145.5 -31.5t76.5 -90.5t23 -143v-301q0 -83 -23 -143t-76.5 -92t-145.5 -32zM292 115q28 0 41 14t17 36t4 45v390q0 24 -4 45.5t-17 35.5t-41 14q-26 0 -39 -14t-17 -35.5t-4 -45.5v-390
q0 -23 3.5 -45t16 -36t40.5 -14zM136 881q0 52 19 87t54.5 53.5t83.5 18.5q49 0 84 -18.5t54 -53.5t19 -87h-92q0 39 -15 57.5t-50 18.5t-50 -18t-15 -58h-92z" />
    <glyph glyph-name="uni020F" unicode="&#x20f;" horiz-adv-x="483" 
d="M241 -10q-62 0 -107.5 21t-70 63t-24.5 105v220q0 63 24.5 105t70 63t107.5 21t107.5 -21t70.5 -63t25 -105v-220q0 -63 -25 -105t-70.5 -63t-107.5 -21zM242 98q16 0 25 8.5t12.5 24t3.5 37.5v242q0 22 -3.5 37.5t-12.5 24t-25 8.5t-25 -8.5t-13 -24t-4 -37.5v-242
q0 -22 4 -37.5t13 -24t25 -8.5zM84 649q0 52 19 87t54.5 53.5t83.5 18.5q49 0 84 -18.5t54 -53.5t19 -87h-92q0 39 -15 57.5t-50 18.5t-50 -18t-15 -58h-92z" />
    <glyph glyph-name="uni0210" unicode="&#x210;" horiz-adv-x="600" 
d="M60 0v810h223q82 0 142 -18t93.5 -64.5t33.5 -131.5q0 -50 -8 -89t-29.5 -67.5t-61.5 -47.5l111 -392h-185l-89 363h-51v-363h-179zM239 466h50q38 0 59 13.5t29.5 39t8.5 61.5q0 52 -19 81t-70 29h-58v-224zM177 870l-100 207h124l64 -207h-88zM352 870l-92 207h119
l59 -207h-86z" />
    <glyph glyph-name="uni0211" unicode="&#x211;" horiz-adv-x="383" 
d="M53 0v578h163v-96q28 50 56 76.5t68 26.5q8 0 14 -0.5t11 -2.5v-162q-11 5 -24.5 8.5t-28.5 3.5q-28 0 -52 -15t-44 -41v-376h-163zM75 638l-100 207h124l64 -207h-88zM250 638l-92 207h119l59 -207h-86z" />
    <glyph glyph-name="uni0212" unicode="&#x212;" horiz-adv-x="600" 
d="M60 0v810h223q82 0 142 -18t93.5 -64.5t33.5 -131.5q0 -50 -8 -89t-29.5 -67.5t-61.5 -47.5l111 -392h-185l-89 363h-51v-363h-179zM239 466h50q38 0 59 13.5t29.5 39t8.5 61.5q0 52 -19 81t-70 29h-58v-224zM143 881q0 52 19 87t54.5 53.5t83.5 18.5q49 0 84 -18.5
t54 -53.5t19 -87h-92q0 39 -15 57.5t-50 18.5t-50 -18t-15 -58h-92z" />
    <glyph glyph-name="uni0213" unicode="&#x213;" horiz-adv-x="383" 
d="M53 0v578h163v-96q28 50 56 76.5t68 26.5q8 0 14 -0.5t11 -2.5v-162q-11 5 -24.5 8.5t-28.5 3.5q-28 0 -52 -15t-44 -41v-376h-163zM41 649q0 52 19 87t54.5 53.5t83.5 18.5q49 0 84 -18.5t54 -53.5t19 -87h-92q0 39 -15 57.5t-50 18.5t-50 -18t-15 -58h-92z" />
    <glyph glyph-name="uni0214" unicode="&#x214;" horiz-adv-x="588" 
d="M294 -12q-93 0 -145.5 30.5t-73.5 89t-21 143.5v559h177v-586q0 -25 4 -50t17.5 -41t41.5 -16q29 0 42 16t16.5 41t3.5 50v586h178v-559q0 -85 -21.5 -143.5t-73.5 -89t-145 -30.5zM171 870l-100 207h124l64 -207h-88zM346 870l-92 207h119l59 -207h-86z" />
    <glyph glyph-name="uni0215" unicode="&#x215;" horiz-adv-x="504" 
d="M153 -10q-35 0 -59.5 17.5t-36.5 48.5t-12 69v453h163v-434q0 -21 7.5 -32.5t26.5 -11.5q11 0 23 5.5t25 12.5v460h162v-578h-162v53q-31 -29 -65.5 -46t-71.5 -17zM129 638l-100 207h124l64 -207h-88zM304 638l-92 207h119l59 -207h-86z" />
    <glyph glyph-name="uni0216" unicode="&#x216;" horiz-adv-x="588" 
d="M294 -12q-93 0 -145.5 30.5t-73.5 89t-21 143.5v559h177v-586q0 -25 4 -50t17.5 -41t41.5 -16q29 0 42 16t16.5 41t3.5 50v586h178v-559q0 -85 -21.5 -143.5t-73.5 -89t-145 -30.5zM137 881q0 52 19 87t54.5 53.5t83.5 18.5q49 0 84 -18.5t54 -53.5t19 -87h-92
q0 39 -15 57.5t-50 18.5t-50 -18t-15 -58h-92z" />
    <glyph glyph-name="uni0217" unicode="&#x217;" horiz-adv-x="504" 
d="M153 -10q-35 0 -59.5 17.5t-36.5 48.5t-12 69v453h163v-434q0 -21 7.5 -32.5t26.5 -11.5q11 0 23 5.5t25 12.5v460h162v-578h-162v53q-31 -29 -65.5 -46t-71.5 -17zM95 649q0 52 19 87t54.5 53.5t83.5 18.5q49 0 84 -18.5t54 -53.5t19 -87h-92q0 39 -15 57.5t-50 18.5
t-50 -18t-15 -58h-92z" />
    <glyph glyph-name="uni0218" unicode="&#x218;" horiz-adv-x="514" 
d="M275 -12q-76 0 -127 27t-77 83.5t-29 146.5l153 23q1 -52 9.5 -84t24 -46t37.5 -14q28 0 36.5 19t8.5 40q0 50 -24 84.5t-65 69.5l-70 61q-46 39 -77.5 88.5t-31.5 122.5q0 103 61 157.5t166 54.5q65 0 104.5 -22t60 -57.5t28 -75t8.5 -75.5l-154 -19q-1 36 -4.5 62.5
t-14.5 41t-34 14.5q-25 0 -36.5 -21t-11.5 -42q0 -45 21.5 -73.5t56.5 -59.5l67 -59q53 -45 89.5 -102t36.5 -141q0 -57 -26 -103.5t-73.5 -73.5t-112.5 -27zM207 -356l-13 54q28 5 49.5 21.5t21.5 59.5h-85v152h153v-130q0 -74 -30 -114.5t-96 -42.5z" />
    <glyph glyph-name="uni0219" unicode="&#x219;" horiz-adv-x="424" 
d="M229 -10q-76 0 -126.5 34t-82.5 111l111 49q16 -39 37.5 -61.5t47.5 -22.5q19 0 28.5 8t9.5 22q0 23 -17.5 42t-62.5 56l-42 35q-46 39 -72.5 75.5t-26.5 90.5q0 47 24.5 83t65.5 56t88 20q72 0 120 -39t68 -110l-107 -48q-6 19 -17 38t-26 32t-34 13q-16 0 -25.5 -9
t-9.5 -24q0 -19 21.5 -41t59.5 -53l41 -36q25 -21 49 -45t39.5 -53t15.5 -66q0 -50 -25 -85.5t-65.5 -53.5t-86.5 -18zM162 -356l-13 54q28 5 49.5 21.5t21.5 59.5h-85v152h153v-130q0 -74 -30 -114.5t-96 -42.5z" />
    <glyph glyph-name="uni021A" unicode="&#x21a;" horiz-adv-x="445" 
d="M133 0v677h-122v133h423v-133h-121v-677h-180zM172 -356l-13 54q28 5 49.5 21.5t21.5 59.5h-85v152h153v-130q0 -74 -30 -114.5t-96 -42.5z" />
    <glyph glyph-name="uni021B" unicode="&#x21b;" horiz-adv-x="351" 
d="M232 -6q-65 0 -100 19t-48.5 55.5t-13.5 88.5v314h-56v107h56v176h165v-176h82v-107h-82v-298q0 -25 14.5 -36t36.5 -11q13 0 24 1.5t20 2.5v-128q-13 -2 -41 -5t-57 -3zM170 -356l-13 54q28 5 49.5 21.5t21.5 59.5h-85v152h153v-130q0 -74 -30 -114.5t-96 -42.5z" />
    <glyph glyph-name="uni021E" unicode="&#x21e;" horiz-adv-x="610" 
d="M63 0v810h179v-328h126v328h179v-810h-179v354h-126v-354h-179zM226 871l-88 187h116l51 -110l51 110h116l-88 -187h-158z" />
    <glyph glyph-name="uni021F" unicode="&#x21f;" horiz-adv-x="509" 
d="M52 0v810h162v-283q32 32 67 46.5t75 14.5q35 0 58.5 -17.5t35.5 -48t12 -69.5v-453h-162v430q0 21 -7 32t-26 11q-10 0 -24 -5.5t-29 -15.5v-452h-162zM258 833l-88 187h116l51 -110l51 110h116l-88 -187h-158z" />
    <glyph glyph-name="uni022A" unicode="&#x22a;" 
d="M292 -12q-91 0 -144 32t-76 92t-23 143v301q0 84 23 143t76 90.5t144 31.5q92 0 145.5 -31.5t76.5 -90.5t23 -143v-301q0 -83 -23 -143t-76.5 -92t-145.5 -32zM292 115q28 0 41 14t17 36t4 45v390q0 24 -4 45.5t-17 35.5t-41 14q-26 0 -39 -14t-17 -35.5t-4 -45.5v-390
q0 -23 3.5 -45t16 -36t40.5 -14zM337 894v148h130v-148h-130zM119 894v148h130v-148h-130zM155 1130v77h276v-77h-276z" />
    <glyph glyph-name="uni022B" unicode="&#x22b;" horiz-adv-x="483" 
d="M241 -10q-62 0 -107.5 21t-70 63t-24.5 105v220q0 63 24.5 105t70 63t107.5 21t107.5 -21t70.5 -63t25 -105v-220q0 -63 -25 -105t-70.5 -63t-107.5 -21zM242 98q16 0 25 8.5t12.5 24t3.5 37.5v242q0 22 -3.5 37.5t-12.5 24t-25 8.5t-25 -8.5t-13 -24t-4 -37.5v-242
q0 -22 4 -37.5t13 -24t25 -8.5zM285 662v148h130v-148h-130zM67 662v148h130v-148h-130zM103 898v77h276v-77h-276z" />
    <glyph glyph-name="uni022C" unicode="&#x22c;" 
d="M292 -12q-91 0 -144 32t-76 92t-23 143v301q0 84 23 143t76 90.5t144 31.5q92 0 145.5 -31.5t76.5 -90.5t23 -143v-301q0 -83 -23 -143t-76.5 -92t-145.5 -32zM292 115q28 0 41 14t17 36t4 45v390q0 24 -4 45.5t-17 35.5t-41 14q-26 0 -39 -14t-17 -35.5t-4 -45.5v-390
q0 -23 3.5 -45t16 -36t40.5 -14zM374 900q-25 0 -46 12t-40 23.5t-39 11.5q-22 0 -29 -12.5t-7 -28.5h-78q0 41 8 73t28 50.5t54 18.5q25 0 44.5 -11t38.5 -22t40 -11q17 0 24 11t7 27h72q0 -32 -4.5 -65t-21 -55t-51.5 -22zM155 1116v77h276v-77h-276z" />
    <glyph glyph-name="uni022D" unicode="&#x22d;" horiz-adv-x="483" 
d="M241 -10q-62 0 -107.5 21t-70 63t-24.5 105v220q0 63 24.5 105t70 63t107.5 21t107.5 -21t70.5 -63t25 -105v-220q0 -63 -25 -105t-70.5 -63t-107.5 -21zM242 98q16 0 25 8.5t12.5 24t3.5 37.5v242q0 22 -3.5 37.5t-12.5 24t-25 8.5t-25 -8.5t-13 -24t-4 -37.5v-242
q0 -22 4 -37.5t13 -24t25 -8.5zM322 668q-25 0 -46 12t-40 23.5t-39 11.5q-22 0 -29 -12.5t-7 -28.5h-78q0 41 8 73t28 50.5t54 18.5q25 0 44.5 -11t38.5 -22t40 -11q17 0 24 11t7 27h72q0 -32 -4.5 -65t-21 -55t-51.5 -22zM103 884v77h276v-77h-276z" />
    <glyph glyph-name="uni0230" unicode="&#x230;" 
d="M292 -12q-91 0 -144 32t-76 92t-23 143v301q0 84 23 143t76 90.5t144 31.5q92 0 145.5 -31.5t76.5 -90.5t23 -143v-301q0 -83 -23 -143t-76.5 -92t-145.5 -32zM292 115q28 0 41 14t17 36t4 45v390q0 24 -4 45.5t-17 35.5t-41 14q-26 0 -39 -14t-17 -35.5t-4 -45.5v-390
q0 -23 3.5 -45t16 -36t40.5 -14zM216 884v154h154v-154h-154zM155 1126v77h276v-77h-276z" />
    <glyph glyph-name="uni0231" unicode="&#x231;" horiz-adv-x="483" 
d="M241 -10q-62 0 -107.5 21t-70 63t-24.5 105v220q0 63 24.5 105t70 63t107.5 21t107.5 -21t70.5 -63t25 -105v-220q0 -63 -25 -105t-70.5 -63t-107.5 -21zM242 98q16 0 25 8.5t12.5 24t3.5 37.5v242q0 22 -3.5 37.5t-12.5 24t-25 8.5t-25 -8.5t-13 -24t-4 -37.5v-242
q0 -22 4 -37.5t13 -24t25 -8.5zM164 652v154h154v-154h-154zM103 894v77h276v-77h-276z" />
    <glyph glyph-name="uni0232" unicode="&#x232;" horiz-adv-x="493" 
d="M162 0v331l-154 479h169l77 -256l69 256h162l-151 -479v-331h-172zM109 898v77h276v-77h-276z" />
    <glyph glyph-name="uni0233" unicode="&#x233;" horiz-adv-x="448" 
d="M67 -168v113q31 0 51.5 4t31 15t10.5 30q0 17 -6 41.5t-15 55.5l-136 487h153l73 -334l55 334h154l-133 -592q-13 -60 -41 -93.5t-68.5 -47t-91.5 -13.5h-37zM86 666v77h276v-77h-276z" />
    <glyph glyph-name="uni0237" unicode="&#x237;" horiz-adv-x="277" 
d="M78 -180q-23 0 -45 3.5t-42 9.5v117q7 -1 14.5 -2.5t14.5 -1.5q14 0 23.5 5t15 15.5t5.5 28.5v583h163v-603q0 -68 -37.5 -111.5t-111.5 -43.5z" />
    <glyph glyph-name="uni0259" unicode="&#x259;" horiz-adv-x="470" 
d="M230 -12q-64 0 -106.5 22t-64 65t-21.5 106v116h231v112q0 21 -4.5 35t-13 21t-21.5 7q-12 0 -21.5 -5t-15 -17.5t-5.5 -33.5v-61h-150v57q0 87 51 131.5t141 44.5q63 0 108 -22.5t69 -65.5t24 -105v-213q0 -62 -24 -105.5t-69 -66t-108 -22.5zM230 104q13 0 21.5 6
t13 21t4.5 41v49h-81v-57q0 -23 5.5 -36t15 -18.5t21.5 -5.5z" />
    <glyph glyph-name="uni0292" unicode="&#x292;" horiz-adv-x="485" 
d="M238 -205q-81 0 -128 32.5t-67.5 90t-20.5 132.5v29h160v-11v-18q0 -77 12 -109t46 -32q23 0 35 14.5t16 44.5t4 76q0 62 -8.5 98.5t-32 52.5t-69.5 16h-64v95l149 187l20 -34h-233v119h356v-99l-175 -218l-49 36h49q87 0 134.5 -29t66.5 -84.5t19 -134.5
q0 -74 -21 -131.5t-69.5 -90t-129.5 -32.5z" />
    <glyph glyph-name="uni02BB" unicode="&#x2bb;" horiz-adv-x="203" 
d="M30 534q0 30 0.5 58.5t1.5 52.5q2 86 27 129.5t94 43.5l12 -51q-39 -1 -50 -26t-11 -64h69v-143h-143z" />
    <glyph glyph-name="uni02BC" unicode="&#x2bc;" horiz-adv-x="382" 
d="M113 509v301h133l-54 -301h-79z" />
    <glyph glyph-name="circumflex" unicode="&#x2c6;" horiz-adv-x="406" 
d="M45 614l94 196h134l97 -196h-119l-44 123l-43 -123h-119z" />
    <glyph glyph-name="caron" unicode="&#x2c7;" horiz-adv-x="402" 
d="M121 624l-86 186h115l49 -109l52 109h115l-89 -186h-156z" />
    <glyph glyph-name="uni02C9" unicode="&#x2c9;" horiz-adv-x="368" 
d="M57 733v77h254v-77h-254z" />
    <glyph glyph-name="breve" unicode="&#x2d8;" horiz-adv-x="325" 
d="M155 686q-40 0 -68.5 14.5t-43.5 42.5t-15 67h70q0 -31 13 -44.5t44 -13.5q32 0 45 14t13 44h71q0 -39 -15.5 -67t-44 -42.5t-69.5 -14.5z" />
    <glyph glyph-name="dotaccent" unicode="&#x2d9;" horiz-adv-x="257" 
d="M61 646v152h153v-152h-153z" />
    <glyph glyph-name="ring" unicode="&#x2da;" horiz-adv-x="325" 
d="M162 602q-47 0 -81.5 28t-34.5 82q0 55 34.5 82t81.5 27t82 -27.5t35 -81.5t-34.5 -82t-82.5 -28zM162 659q25 0 37 16t12 37t-12 36.5t-37 15.5q-24 0 -36.5 -15.5t-12.5 -36.5t12.5 -37t36.5 -16z" />
    <glyph glyph-name="ogonek" unicode="&#x2db;" horiz-adv-x="399" 
d="M254 -260q-25 0 -53 3.5t-52 14.5t-39 32.5t-15 57.5q0 26 11 54.5t29 54t38 43.5h73q-9 -17 -17.5 -37.5t-13.5 -41.5t-5 -42q0 -34 19.5 -46.5t44.5 -12.5q8 0 16 0.5t13 1.5l-16 -79q-6 -1 -14.5 -2t-18.5 -1z" />
    <glyph glyph-name="tilde" unicode="&#x2dc;" horiz-adv-x="424" 
d="M307 668q-23 -2 -50 10t-51.5 24.5t-41.5 12.5q-16 0 -22 -12.5t-6 -28.5h-78q0 30 3 55.5t12 44t25.5 29.5t41.5 12q30 3 55.5 -7t45.5 -21.5t32 -13.5q17 -2 23 9t6 28h71q0 -32 -4 -64t-18 -53.5t-44 -24.5z" />
    <glyph glyph-name="hungarumlaut" unicode="&#x2dd;" horiz-adv-x="490" 
d="M232 633l64 216h140l-120 -216h-84zM54 633l60 216h132l-108 -216h-84z" />
    <glyph glyph-name="gravecomb" unicode="&#x300;" horiz-adv-x="0" 
d="M-48 642l-127 201h168l61 -201h-102z" />
    <glyph glyph-name="acutecomb" unicode="&#x301;" horiz-adv-x="0" 
d="M-54 642l63 201h166l-126 -201h-103z" />
    <glyph glyph-name="uni0302" unicode="&#x302;" horiz-adv-x="0" 
d="M-163 649l95 192h133l98 -192h-120l-44 119l-43 -119h-119z" />
    <glyph glyph-name="tildecomb" unicode="&#x303;" horiz-adv-x="0" 
d="M81 668q-25 0 -46 12t-40 23.5t-39 11.5q-22 0 -29 -12.5t-7 -28.5h-78q0 41 8 73t28 50.5t54 18.5q25 0 44.5 -11t38.5 -22t40 -11q17 0 24 11t7 27h72q0 -32 -4.5 -65t-21 -55t-51.5 -22z" />
    <glyph glyph-name="uni0304" unicode="&#x304;" horiz-adv-x="0" 
d="M-138 666v77h276v-77h-276z" />
    <glyph glyph-name="uni0306" unicode="&#x306;" horiz-adv-x="0" 
d="M0 643q-71 0 -114 40t-43 116h92q0 -37 14.5 -55t50.5 -18q35 0 50 18.5t15 54.5h92q0 -76 -43 -116t-114 -40z" />
    <glyph glyph-name="uni0307" unicode="&#x307;" horiz-adv-x="0" 
d="M-77 652v154h154v-154h-154z" />
    <glyph glyph-name="uni0308" unicode="&#x308;" horiz-adv-x="0" 
d="M44 662v148h130v-148h-130zM-174 662v148h130v-148h-130z" />
    <glyph glyph-name="hookabovecomb" unicode="&#x309;" horiz-adv-x="0" 
d="M0 627l-55 52q30 14 51 27.5t21 36.5q0 20 -16 27.5t-41 7.5q-15 0 -32 -2t-30 -5v68q48 13 102 13q32 0 60 -10t45 -31.5t17 -57.5q0 -35 -17 -59t-44.5 -39.5t-60.5 -27.5z" />
    <glyph glyph-name="uni030A" unicode="&#x30a;" horiz-adv-x="0" 
d="M-1 622q-47 0 -81.5 27.5t-34.5 81.5q0 55 34.5 82.5t81.5 27.5t82.5 -28t35.5 -82t-35 -81.5t-83 -27.5zM-1 679q25 0 37.5 15.5t12.5 36.5q0 22 -12.5 37.5t-37.5 15.5q-24 0 -36.5 -15.5t-12.5 -37.5q0 -21 12.5 -36.5t36.5 -15.5z" />
    <glyph glyph-name="uni030B" unicode="&#x30b;" horiz-adv-x="0" 
d="M42 633l64 216h140l-120 -216h-84zM-136 633l60 216h132l-108 -216h-84z" />
    <glyph glyph-name="uni030C" unicode="&#x30c;" horiz-adv-x="0" 
d="M-79 639l-88 187h116l51 -110l51 110h116l-88 -187h-158z" />
    <glyph glyph-name="uni030F" unicode="&#x30f;" horiz-adv-x="0" 
d="M-123 638l-100 207h124l64 -207h-88zM52 638l-92 207h119l59 -207h-86z" />
    <glyph glyph-name="uni0311" unicode="&#x311;" horiz-adv-x="0" 
d="M-157 649q0 52 19 87t54.5 53.5t83.5 18.5q49 0 84 -18.5t54 -53.5t19 -87h-92q0 39 -15 57.5t-50 18.5t-50 -18t-15 -58h-92z" />
    <glyph glyph-name="uni0312" unicode="&#x312;" horiz-adv-x="0" 
d="M50 932l13 -54q-28 -6 -49.5 -22.5t-21.5 -58.5h85v-152h-153v130q0 74 30 114.5t96 42.5z" />
    <glyph glyph-name="uni031B" unicode="&#x31b;" horiz-adv-x="0" 
d="M-10 513v65h10q30 0 42 21.5t12 64.5h114q0 -76 -47 -113.5t-121 -37.5h-10z" />
    <glyph glyph-name="dotbelowcomb" unicode="&#x323;" horiz-adv-x="0" 
d="M-69 -208v138h139v-138h-139z" />
    <glyph glyph-name="uni0324" unicode="&#x324;" horiz-adv-x="0" 
d="M44 -218v148h130v-148h-130zM-174 -218v148h130v-148h-130z" />
    <glyph glyph-name="uni0326" unicode="&#x326;" horiz-adv-x="0" 
d="M-50 -357l-13 54q28 5 49.5 21.5t21.5 59.5h-85v152h153v-130q0 -74 -30 -114.5t-96 -42.5z" />
    <glyph glyph-name="uni0327" unicode="&#x327;" horiz-adv-x="0" 
d="M20 -277q-19 0 -38.5 3t-37.5 9v70q11 -3 26 -5.5t31 -2.5q26 0 44 8t18 27t-14.5 30t-35.5 16t-42 6v116h59v-66q62 0 99.5 -25.5t37.5 -78.5q0 -38 -20.5 -62t-54 -34.5t-72.5 -10.5z" />
    <glyph glyph-name="uni0328" unicode="&#x328;" horiz-adv-x="0" 
d="M45 -260q-25 0 -53 3.5t-52 14.5t-39 32.5t-15 57.5q0 26 11 54.5t29 54t38 43.5h73q-9 -17 -17.5 -37.5t-13.5 -41.5t-5 -42q0 -34 19.5 -46.5t44.5 -12.5q8 0 16 0.5t13 1.5l-16 -79q-6 -1 -14.5 -2t-18.5 -1z" />
    <glyph glyph-name="uni032E" unicode="&#x32e;" horiz-adv-x="0" 
d="M0 -237q-71 0 -114 40t-43 116h92q0 -37 14.5 -55t50.5 -18q35 0 50 18.5t15 54.5h92q0 -76 -43 -116t-114 -40z" />
    <glyph glyph-name="uni0331" unicode="&#x331;" horiz-adv-x="0" 
d="M-138 -213v77h276v-77h-276z" />
    <glyph glyph-name="uni0335" unicode="&#x335;" horiz-adv-x="0" 
d="M-127 329v77h254v-77h-254z" />
    <glyph glyph-name="Pi" unicode="&#x3a0;" horiz-adv-x="611" 
d="M51 0v810h508v-810h-158v681h-191v-681h-159z" />
    <glyph glyph-name="pi" unicode="&#x3c0;" horiz-adv-x="589" 
d="M546 -10q-89 0 -136 16.5t-64.5 50.5t-17.5 84v331h-84v-472h-163v472h-62v106h540v-106h-69v-266q0 -43 3.5 -65t17 -29.5t42.5 -7.5z" />
    <glyph glyph-name="uni0400" unicode="&#x400;" horiz-adv-x="447" 
d="M60 0v810h364v-122h-185v-201h141v-124h-141v-242h187v-121h-366zM196 874l-127 201h168l61 -201h-102z" />
    <glyph glyph-name="uni0401" unicode="&#x401;" horiz-adv-x="447" 
d="M60 0v810h364v-122h-185v-201h141v-124h-141v-242h187v-121h-366zM288 894v148h130v-148h-130zM70 894v148h130v-148h-130z" />
    <glyph glyph-name="uni0402" unicode="&#x402;" horiz-adv-x="671" 
d="M443 -9q-30 0 -40 1.5t-19 2.5v101h9.5h8.5q18 3 29 11.5t16 22.5t5 32v129q0 42 -15 63t-55 21q-19 0 -38 -5.5t-36 -16.5v-353h-178v685h-122v125h422v-125h-122v-242q32 19 65 28.5t70 9.5q54 0 96 -19.5t66 -61.5t24 -110v-135q0 -45 -19.5 -82t-60.5 -59.5
t-106 -22.5z" />
    <glyph glyph-name="uni0403" unicode="&#x403;" horiz-adv-x="464" 
d="M63 0v810h376v-133h-197v-677h-179zM178 874l63 201h166l-126 -201h-103z" />
    <glyph glyph-name="uni0404" unicode="&#x404;" horiz-adv-x="553" 
d="M292 -12q-92 0 -145.5 33.5t-75.5 94t-22 142.5v292q0 84 22 144.5t75.5 93.5t145.5 33q90 0 140.5 -29.5t71.5 -82.5t21 -122v-48h-175v59q0 24 -2.5 46t-14.5 36.5t-41 14.5q-28 0 -41.5 -15t-17 -37.5t-3.5 -47.5v-138h130v-97h-130v-146q0 -27 4.5 -49.5t18 -36
t39.5 -13.5q28 0 40 14.5t15 37.5t3 47v55h175v-40q0 -69 -20.5 -123.5t-71 -86t-141.5 -31.5z" />
    <glyph glyph-name="uni0405" unicode="&#x405;" horiz-adv-x="514" 
d="M275 -12q-76 0 -127 27t-77 83.5t-29 146.5l153 23q1 -52 9.5 -84t24 -46t37.5 -14q28 0 36.5 19t8.5 40q0 50 -24 84.5t-65 69.5l-70 61q-46 39 -77.5 88.5t-31.5 122.5q0 103 61 157.5t166 54.5q65 0 104.5 -22t60 -57.5t28 -75t8.5 -75.5l-154 -19q-1 36 -4.5 62.5
t-14.5 41t-34 14.5q-25 0 -36.5 -21t-11.5 -42q0 -45 21.5 -73.5t56.5 -59.5l67 -59q53 -45 89.5 -102t36.5 -141q0 -57 -26 -103.5t-73.5 -73.5t-112.5 -27z" />
    <glyph glyph-name="uni0406" unicode="&#x406;" horiz-adv-x="277" 
d="M54 0v810h178v-810h-178z" />
    <glyph glyph-name="uni0407" unicode="&#x407;" horiz-adv-x="277" 
d="M54 0v810h178v-810h-178zM183 894v148h130v-148h-130zM-35 894v148h130v-148h-130z" />
    <glyph glyph-name="uni0408" unicode="&#x408;" horiz-adv-x="325" 
d="M4 -21v125q27 0 46 3t30.5 11.5t16.5 25t5 42.5v624h178v-632q0 -66 -16.5 -110.5t-57.5 -66.5t-115 -22h-87z" />
    <glyph glyph-name="uni0409" unicode="&#x409;" horiz-adv-x="888" 
d="M74 0h-64v126q32 -1 53 4.5t34 22.5t21 50t12 87l35 520h430v-342h32q77 0 130.5 -25t81.5 -76.5t28 -132.5q0 -74 -19.5 -120t-54.5 -71t-81.5 -34t-100.5 -9h-194v673h-90l-25 -387q-5 -84 -20 -139.5t-41.5 -88t-67.5 -45.5t-99 -13zM595 117h18q33 0 52.5 13t28 40
t8.5 68q0 45 -18.5 75.5t-72.5 30.5h-16v-227z" />
    <glyph glyph-name="uni040A" unicode="&#x40a;" horiz-adv-x="835" 
d="M63 1v810h179v-333h114v333h179v-343h30q77 0 130 -25t81 -76.5t28 -132.5q0 -74 -19.5 -120t-54.5 -70.5t-81.5 -33.5t-99.5 -9h-193v342h-114v-342h-179zM535 117h14q34 0 53.5 12.5t28 38t8.5 64.5q0 55 -18.5 83.5t-72.5 28.5h-13v-227z" />
    <glyph glyph-name="uni040B" unicode="&#x40b;" horiz-adv-x="673" 
d="M395 484q108 0 171 -51.5t63 -156.5v-276h-179v237q0 51 -8.5 81t-28 43t-54.5 13q-10 0 -25 -2t-28 -5v-367h-179v677h-122v133h423v-133h-122v-202q26 5 46.5 7t42.5 2z" />
    <glyph glyph-name="uni040C" unicode="&#x40c;" horiz-adv-x="572" 
d="M63 0v810h179v-321h18l119 321h178l-148 -380l153 -430h-184l-118 353h-18v-353h-179zM233 874l63 201h166l-126 -201h-103z" />
    <glyph glyph-name="uni040D" unicode="&#x40d;" horiz-adv-x="590" 
d="M63 0v810h141v-464l207 464h116v-810h-144v472l-211 -472h-109zM260 874l-127 201h168l61 -201h-102z" />
    <glyph glyph-name="uni040E" unicode="&#x40e;" horiz-adv-x="554" 
d="M53 -163v123q14 -1 26.5 -1.5t23.5 -0.5q24 0 43.5 4t33.5 12.5t21.5 23t7.5 35.5q0 15 -1.5 26.5t-3.5 22.5l-182 728h166l70 -333l33 -217l24 218l59 332h168l-166 -745q-14 -64 -34 -108.5t-49 -71.5t-70.5 -39t-100.5 -12q-15 0 -32 1t-37 2zM277 875q-71 0 -114 40
t-43 116h92q0 -37 14.5 -55t50.5 -18q35 0 50 18.5t15 54.5h92q0 -76 -43 -116t-114 -40z" />
    <glyph glyph-name="uni040F" unicode="&#x40f;" horiz-adv-x="599" 
d="M245 -160l-12 160h-173v810h179v-675h121v675h179v-810h-171l-10 -160h-113z" />
    <glyph glyph-name="uni0410" unicode="&#x410;" horiz-adv-x="551" 
d="M21 0l153 810h204l151 -810h-165l-27 171h-119l-28 -171h-169zM234 278h86l-43 316z" />
    <glyph glyph-name="uni0411" unicode="&#x411;" horiz-adv-x="554" 
d="M63 0v810h402v-136h-223v-206h38q77 0 130.5 -25t81.5 -76.5t28 -132.5q0 -74 -19.5 -120t-54.5 -71t-81.5 -34t-100.5 -9h-201zM242 117h23q34 0 54 13t28 40t7 68q-1 45 -19 75.5t-72 30.5h-21v-227z" />
    <glyph glyph-name="uni0412" unicode="&#x412;" horiz-adv-x="588" 
d="M60 0v810h211q52 0 98.5 -8t82.5 -30.5t56.5 -64t20.5 -109.5q0 -49 -14.5 -82.5t-41 -53.5t-63.5 -27q47 -6 79 -30.5t48.5 -65.5t16.5 -99q0 -63 -16.5 -108.5t-47.5 -74.5t-76.5 -43t-104.5 -14h-249zM239 125h38q59 0 81.5 30t22.5 88q0 46 -10 73t-33 39.5t-62 12.5
h-37v-243zM239 486h35q41 0 62 12.5t28.5 36.5t7.5 58q0 32 -11.5 53.5t-34 32.5t-56.5 11h-31v-204z" />
    <glyph glyph-name="uni0413" unicode="&#x413;" horiz-adv-x="464" 
d="M63 0v810h376v-133h-197v-677h-179z" />
    <glyph glyph-name="uni0414" unicode="&#x414;" horiz-adv-x="693" 
d="M18 -160v288h23q23 7 42.5 24.5t35.5 47.5t29 75t22 107.5t15 144.5l22 283h377v-682h91v-288h-114l-13 160h-397l-19 -160h-114zM210 128h207v555h-75l-9 -174q-5 -86 -14.5 -146t-22 -99.5t-26.5 -64.5t-29.5 -41t-30.5 -30z" />
    <glyph glyph-name="uni0415" unicode="&#x415;" horiz-adv-x="447" 
d="M60 0v810h364v-122h-185v-201h141v-124h-141v-242h187v-121h-366z" />
    <glyph glyph-name="uni0416" unicode="&#x416;" horiz-adv-x="795" 
d="M6 0l170 407l-166 403h167l141 -379h8v379h142v-379h9l141 379h167l-166 -403l170 -407h-160l-152 393h-9v-393h-142v393h-8l-152 -393h-160z" />
    <glyph glyph-name="uni0417" unicode="&#x417;" horiz-adv-x="526" 
d="M266 -15q-85 0 -133.5 32t-69 89.5t-20.5 132.5v29h168v-12v-19q0 -60 12 -85.5t46 -25.5q23 0 34.5 12t16 35.5t4.5 59.5q0 61 -18 92.5t-75 32.5q-1 1 -8.5 1h-17.5h-19v109h14h14h13q59 1 78 32t19 92q0 47 -14.5 72t-48.5 25q-33 0 -45.5 -26.5t-13.5 -70.5v-16.5
v-28.5h-168v49q0 73 28.5 123.5t79.5 76.5t120 26q71 0 121.5 -25t77.5 -73.5t27 -120.5q0 -71 -29 -119.5t-70 -59.5q28 -11 50.5 -32.5t35.5 -58.5t13 -95q0 -74 -21.5 -131.5t-70.5 -89.5t-130 -32z" />
    <glyph glyph-name="uni0418" unicode="&#x418;" horiz-adv-x="590" 
d="M63 0v810h141v-464l207 464h116v-810h-144v472l-211 -472h-109z" />
    <glyph glyph-name="uni0419" unicode="&#x419;" horiz-adv-x="590" 
d="M63 0v810h141v-464l207 464h116v-810h-144v472l-211 -472h-109zM308 875q-71 0 -114 40t-43 116h92q0 -37 14.5 -55t50.5 -18q35 0 50 18.5t15 54.5h92q0 -76 -43 -116t-114 -40z" />
    <glyph glyph-name="uni041A" unicode="&#x41a;" horiz-adv-x="572" 
d="M63 0v810h179v-321h18l119 321h178l-148 -380l153 -430h-184l-118 353h-18v-353h-179z" />
    <glyph glyph-name="uni041B" unicode="&#x41b;" horiz-adv-x="656" 
d="M7 0v126q34 0 55 4.5t33 21.5t19 52t11.5 94t11.5 150l26 362h429v-810h-178v673h-89l-16 -259q-7 -100 -14 -172.5t-22.5 -121.5t-46 -76.5t-83.5 -37.5t-136 -6z" />
    <glyph glyph-name="uni041C" unicode="&#x41c;" horiz-adv-x="704" 
d="M57 0l14 810h192l89 -471l96 471h185l14 -810h-127l-15 539l-94 -539h-113l-100 543l-12 -543h-129z" />
    <glyph glyph-name="uni041D" unicode="&#x41d;" horiz-adv-x="610" 
d="M63 0v810h179v-328h126v328h179v-810h-179v354h-126v-354h-179z" />
    <glyph glyph-name="uni041E" unicode="&#x41e;" 
d="M292 -12q-91 0 -144 32t-76 92t-23 143v301q0 84 23 143t76 90.5t144 31.5q92 0 145.5 -31.5t76.5 -90.5t23 -143v-301q0 -83 -23 -143t-76.5 -92t-145.5 -32zM292 115q28 0 41 14t17 36t4 45v390q0 24 -4 45.5t-17 35.5t-41 14q-26 0 -39 -14t-17 -35.5t-4 -45.5v-390
q0 -23 3.5 -45t16 -36t40.5 -14z" />
    <glyph glyph-name="uni041F" unicode="&#x41f;" horiz-adv-x="605" 
d="M60 0v810h485v-810h-176v682h-133v-682h-176z" />
    <glyph glyph-name="uni0420" unicode="&#x420;" horiz-adv-x="571" 
d="M60 0v810h272q73 0 120 -27.5t70 -80t23 -127.5q0 -94 -31 -143.5t-84 -68.5t-119 -19h-72v-344h-179zM239 469h60q33 0 50 12t22.5 36t5.5 61q0 31 -4.5 54.5t-21.5 37.5t-53 14h-59v-215z" />
    <glyph glyph-name="uni0421" unicode="&#x421;" horiz-adv-x="563" 
d="M292 -12q-92 0 -145.5 33.5t-75.5 94t-22 142.5v292q0 84 22 144.5t75.5 93.5t145.5 33q90 0 140.5 -29.5t71.5 -82.5t21 -122v-70h-175v81q0 24 -2.5 46t-14.5 36.5t-41 14.5q-28 0 -41.5 -15t-17 -37.5t-3.5 -47.5v-381q0 -27 4.5 -49.5t18 -36t39.5 -13.5
q28 0 40 14.5t15 37.5t3 47v85h175v-70q0 -69 -20.5 -123.5t-71 -86t-141.5 -31.5z" />
    <glyph glyph-name="uni0422" unicode="&#x422;" horiz-adv-x="445" 
d="M133 0v677h-122v133h423v-133h-121v-677h-180z" />
    <glyph glyph-name="uni0423" unicode="&#x423;" horiz-adv-x="554" 
d="M53 -163v123q14 -1 26.5 -1.5t23.5 -0.5q24 0 43.5 4t33.5 12.5t21.5 23t7.5 35.5q0 15 -1.5 26.5t-3.5 22.5l-182 728h166l70 -333l33 -217l24 218l59 332h168l-166 -745q-14 -64 -34 -108.5t-49 -71.5t-70.5 -39t-100.5 -12q-15 0 -32 1t-37 2z" />
    <glyph glyph-name="uni0424" unicode="&#x424;" horiz-adv-x="759" 
d="M307 -29v121q-15 -1 -30.5 -2t-31.5 -1q-55 0 -100.5 23t-72 67.5t-26.5 108.5v244q0 58 27.5 103t77 70.5t113.5 25.5q11 0 22.5 -0.5t20.5 -1.5v128h144v-128q9 1 19 1.5t21 0.5q67 0 116.5 -25.5t77 -70.5t27.5 -103v-245q0 -64 -26.5 -108.5t-70 -67.5t-96.5 -23
q-17 0 -33.5 1t-34.5 2v-120h-144zM287 200q5 0 11 0.5t9 1.5v420q-4 1 -10.5 1.5t-11.5 0.5q-25 0 -43 -11t-28 -31t-10 -48v-249q0 -24 8 -43t26 -30.5t49 -11.5zM472 201q29 0 47 10.5t26.5 29.5t8.5 44v249q0 30 -9 50t-25.5 30t-39.5 10q-8 0 -15 -0.5t-14 -1.5v-419
q5 -1 10.5 -1.5t10.5 -0.5z" />
    <glyph glyph-name="uni0425" unicode="&#x425;" horiz-adv-x="515" 
d="M7 0l157 436l-150 374h169l89 -219l72 219h149l-142 -421l158 -389h-168l-99 242l-87 -242h-148z" />
    <glyph glyph-name="uni0426" unicode="&#x426;" horiz-adv-x="677" 
d="M527 -160l-17 160h-445v810h178v-689h137v689h179v-689h81v-281h-113z" />
    <glyph glyph-name="uni0427" unicode="&#x427;" horiz-adv-x="609" 
d="M368 0v335q-27 -5 -47 -7t-43 -2q-107 0 -170 51.5t-63 156.5v276h179v-237q0 -50 8 -80.5t28 -43.5t54 -13q11 0 26 2t28 5v367h179v-810h-179z" />
    <glyph glyph-name="uni0428" unicode="&#x428;" horiz-adv-x="825" 
d="M63 0v810h169v-682h99v682h168v-682h95v682h168v-810h-699z" />
    <glyph glyph-name="uni0429" unicode="&#x429;" horiz-adv-x="888" 
d="M737 -160l-16 160h-652v810h169v-689h99v689h168v-689h95v689h169v-689h82v-281h-114z" />
    <glyph glyph-name="uni042A" unicode="&#x42a;" horiz-adv-x="632" 
d="M134 0v688h-121v122h300v-342h46q77 0 130.5 -25t81 -76.5t27.5 -132.5q0 -74 -19.5 -120t-54.5 -71t-81.5 -34t-99.5 -9h-209zM313 117h31q34 0 53.5 13t28 40t7.5 68q-1 45 -19 75.5t-73 30.5h-28v-227z" />
    <glyph glyph-name="uni042B" unicode="&#x42b;" horiz-adv-x="831" 
d="M63 0v810h179v-342h40q77 0 130.5 -25t81 -76.5t27.5 -132.5q0 -74 -19.5 -120t-54.5 -71t-81 -34t-100 -9h-203zM242 117h25q34 0 53.5 13t28 40t7.5 68q-1 45 -19 75.5t-72 30.5h-23v-227zM589 0v810h179v-810h-179z" />
    <glyph glyph-name="uni042C" unicode="&#x42c;" horiz-adv-x="556" 
d="M63 0v810h179v-342h40q76 0 129 -25t81 -76.5t28 -132.5q0 -74 -19.5 -120t-54.5 -71t-81.5 -34t-99.5 -9h-202zM242 117h24q34 0 53.5 13t28 40t7.5 68q-1 45 -18.5 75.5t-72.5 30.5h-22v-227z" />
    <glyph glyph-name="uni042D" unicode="&#x42d;" horiz-adv-x="575" 
d="M283 -10q-89 0 -140 30t-72 83t-21 121v43h175v-53q0 -24 2.5 -46.5t15 -36.5t40.5 -14t41 14.5t16.5 38t3.5 48.5v142h-134v90h134v148q0 28 -4.5 50.5t-17.5 35.5t-39 13q-28 0 -40 -14.5t-15 -37t-3 -47.5v-56h-175v40q0 69 20.5 124t71.5 86.5t141 31.5
q93 0 146 -33.5t75 -94t22 -143.5v-291q0 -84 -22 -145t-75 -94t-146 -33z" />
    <glyph glyph-name="Yucy" unicode="&#x42e;" horiz-adv-x="825" 
d="M552 -12q-86 0 -135 34.5t-69 97t-20 145.5v79h-88v-344h-177v810h177v-334h88v70q0 84 20 145.5t69 95.5t135 34t135 -34t69 -96t20 -145v-281q0 -83 -20 -145.5t-69 -97t-135 -34.5zM552 115q27 0 39 14t15 36t3 45v390q0 24 -3 45.5t-15 35.5t-39 14q-26 0 -38.5 -14
t-15.5 -35.5t-3 -45.5v-390q0 -23 3 -45t15.5 -36t38.5 -14z" />
    <glyph glyph-name="Yacy" unicode="&#x42f;" horiz-adv-x="606" 
d="M10 0l154 360q-46 28 -75.5 82t-29.5 126q0 94 33 146.5t94.5 74t147.5 21.5h208v-810h-178v320h-32h-5h-6l-118 -320h-193zM338 446h26v241h-28q-55 0 -82.5 -30.5t-27.5 -89.5q0 -52 24 -86.5t88 -34.5z" />
    <glyph glyph-name="uni0430" unicode="&#x430;" horiz-adv-x="460" 
d="M154 -10q-44 0 -74 21t-45 53.5t-15 66.5q0 54 21.5 91t56.5 62t77 42.5t83 31.5v58q0 15 -3 26.5t-10 18t-21 6.5t-21.5 -6t-10.5 -16.5t-4 -23.5l-4 -42l-152 6q5 104 55.5 153.5t151.5 49.5q88 0 131.5 -48.5t43.5 -125.5v-270q0 -36 1.5 -63t4 -47t4.5 -34h-146
q-3 23 -7 50t-6 32q-10 -36 -37.5 -64t-73.5 -28zM212 100q10 0 18.5 4t15.5 11t12 14v158q-20 -12 -37 -24.5t-29 -27.5t-18.5 -32.5t-6.5 -39.5q0 -29 12 -46t33 -17z" />
    <glyph glyph-name="uni0431" unicode="&#x431;" horiz-adv-x="483" 
d="M240 -10q-80 2 -122.5 29t-57.5 78.5t-15 123.5v323q0 80 16.5 128t46 74t68.5 40t78.5 22t77 18.5t69.5 31.5l6 -131q-33 -17 -69.5 -24.5t-71 -13t-63.5 -17.5q-26 -10 -37 -37.5t-11 -75.5v-44q13 15 32.5 25t46 15t58.5 5q53 0 86 -20t48.5 -66t15.5 -125v-141
q0 -89 -25.5 -136.5t-71 -64.5t-105.5 -17zM247 95q19 0 27.5 10t11.5 37.5t3 81.5v154q0 33 -3 52.5t-12 27.5t-26 8q-11 0 -20.5 -6.5t-15.5 -21t-10 -40.5v-173q0 -53 3 -81t13 -38.5t29 -10.5z" />
    <glyph glyph-name="uni0432" unicode="&#x432;" horiz-adv-x="505" 
d="M51 0v578h205q87 0 131 -18.5t59 -50.5t15 -75q0 -57 -24.5 -83.5t-64.5 -37.5q42 -10 64 -30t30.5 -49t8.5 -67q0 -56 -21 -93.5t-71 -55.5t-136 -18h-196zM213 90h27q22 0 39 4t27.5 21.5t10.5 56.5q0 44 -9.5 63t-26.5 23t-40 4h-28v-172zM213 350h41q29 0 40 18.5
t11 51.5q0 32 -11.5 53t-51.5 21h-29v-144z" />
    <glyph glyph-name="uni0433" unicode="&#x433;" horiz-adv-x="352" 
d="M51 0v578h288v-110h-125v-468h-163z" />
    <glyph glyph-name="uni0434" unicode="&#x434;" horiz-adv-x="614" 
d="M39 -160v259q33 15 57 39.5t41 60t27 83t14 108.5l16 188h319v-478h76v-260h-111l-11 160h-308l-9 -160h-111zM215 100h149v381h-49l-12 -130q-3 -55 -10.5 -95.5t-19 -70t-26.5 -50t-32 -35.5z" />
    <glyph glyph-name="uni0435" unicode="&#x435;" horiz-adv-x="470" 
d="M240 -10q-63 0 -108 22.5t-69 66t-24 104.5v212q0 62 24 105t69.5 65.5t107.5 22.5q64 0 106.5 -22t64 -65t21.5 -106v-116h-232v-111q0 -22 5 -36t14 -20t21 -6t21.5 5.5t15 17.5t5.5 33v61h150v-56q0 -88 -51 -132.5t-141 -44.5zM200 355h82v58q0 23 -5.5 36t-15 18
t-22.5 5q-12 0 -20.5 -6t-13.5 -20.5t-5 -41.5v-49z" />
    <glyph glyph-name="uni0436" unicode="&#x436;" horiz-adv-x="660" 
d="M7 0l115 291l-108 287h141l92 -274h12v274h136v-274h11l98 274h143l-115 -287l121 -291h-135l-112 279h-11v-279h-136v279h-12l-105 -279h-135z" />
    <glyph glyph-name="uni0437" unicode="&#x437;" horiz-adv-x="450" 
d="M223 -11q-60 0 -96.5 16.5t-56 45t-26 65t-6.5 76.5h129q0 -46 14.5 -68.5t45.5 -22.5q23 0 35 10t16.5 28t4.5 40q0 29 -10.5 46t-34 24.5t-63.5 7.5v84q60 0 78.5 16t18.5 56q0 29 -11.5 46t-40.5 17q-31 0 -43.5 -17.5t-12.5 -61.5h-128q0 52 16 95.5t57.5 69.5
t118.5 26q68 0 110.5 -21.5t62 -58t19.5 -82.5q0 -38 -12 -64t-31 -40.5t-42 -21.5q25 -9 44.5 -24t31.5 -42.5t12 -74.5q0 -73 -47 -121.5t-153 -48.5z" />
    <glyph glyph-name="uni0438" unicode="&#x438;" horiz-adv-x="508" 
d="M51 0v578h129v-309l151 309h127v-578h-132v306l-147 -306h-128z" />
    <glyph glyph-name="uni0439" unicode="&#x439;" horiz-adv-x="508" 
d="M51 0v578h129v-309l151 309h127v-578h-132v306l-147 -306h-128zM256 643q-71 0 -114 40t-43 116h92q0 -37 14.5 -55t50.5 -18q35 0 50 18.5t15 54.5h92q0 -76 -43 -116t-114 -40z" />
    <glyph glyph-name="uni043A" unicode="&#x43a;" horiz-adv-x="513" 
d="M51 0v578h163v-228h24l88 228h175l-114 -273l117 -305h-172l-94 256h-24v-256h-163z" />
    <glyph glyph-name="uni043B" unicode="&#x43b;" horiz-adv-x="567" 
d="M13 -6v115q32 0 52.5 10t33 34.5t19.5 67t12 108.5l19 249h367v-578h-163v468h-66l-14 -171q-7 -90 -20 -149t-38 -92.5t-67 -47.5t-107 -14h-28z" />
    <glyph glyph-name="uni043C" unicode="&#x43c;" horiz-adv-x="582" 
d="M52 0v578h120l118 -277l119 277h120v-578h-125v304l-89 -214h-48l-90 215v-305h-125z" />
    <glyph glyph-name="uni043D" unicode="&#x43d;" horiz-adv-x="525" 
d="M51 0v578h163v-224h97v224h163v-578h-163v242h-97v-242h-163z" />
    <glyph glyph-name="uni043E" unicode="&#x43e;" horiz-adv-x="483" 
d="M241 -10q-62 0 -107.5 21t-70 63t-24.5 105v220q0 63 24.5 105t70 63t107.5 21t107.5 -21t70.5 -63t25 -105v-220q0 -63 -25 -105t-70.5 -63t-107.5 -21zM242 98q16 0 25 8.5t12.5 24t3.5 37.5v242q0 22 -3.5 37.5t-12.5 24t-25 8.5t-25 -8.5t-13 -24t-4 -37.5v-242
q0 -22 4 -37.5t13 -24t25 -8.5z" />
    <glyph glyph-name="uni043F" unicode="&#x43f;" horiz-adv-x="511" 
d="M51 0v578h410v-578h-163v467h-84v-467h-163z" />
    <glyph glyph-name="uni0440" unicode="&#x440;" horiz-adv-x="505" 
d="M51 -190v768h163v-42q29 26 62 39t63 13q33 0 56.5 -13t38.5 -36.5t22 -54.5t7 -66v-249q0 -54 -14.5 -94t-42.5 -62.5t-69 -22.5q-31 0 -62.5 14.5t-60.5 39.5v-234h-163zM257 95q16 0 25 9t13.5 23.5t4.5 32.5v270q0 17 -4 30.5t-13 21.5t-23 8q-13 0 -24.5 -5.5
t-21.5 -14.5v-360q11 -7 21.5 -11t21.5 -4z" />
    <glyph glyph-name="uni0441" unicode="&#x441;" horiz-adv-x="468" 
d="M239 -10q-63 0 -107.5 23t-68.5 66t-24 104v212q0 62 24 105t68.5 65.5t107.5 22.5q62 0 105.5 -19t66.5 -57.5t23 -97.5v-61h-157v66q0 23 -4.5 35.5t-13 17.5t-20.5 5t-20 -6.5t-12 -21t-4 -40.5v-240q0 -39 9.5 -53t27.5 -14q13 0 21 5.5t12 18t4 33.5v77h157v-70
q0 -58 -23.5 -97.5t-67 -59t-104.5 -19.5z" />
    <glyph glyph-name="uni0442" unicode="&#x442;" horiz-adv-x="405" 
d="M121 0v468h-105v110h372v-110h-105v-468h-162z" />
    <glyph glyph-name="uni0443" unicode="&#x443;" horiz-adv-x="448" 
d="M67 -168v113q31 0 51.5 4t31 15t10.5 30q0 17 -6 41.5t-15 55.5l-136 487h153l73 -334l55 334h154l-133 -592q-13 -60 -41 -93.5t-68.5 -47t-91.5 -13.5h-37z" />
    <glyph glyph-name="uni0444" unicode="&#x444;" horiz-adv-x="697" 
d="M277 -172v180h-17q-32 0 -69.5 9.5t-71.5 33t-56 63t-22 99.5v163q0 53 19.5 91t51.5 62t71 35.5t77 11.5h17v233h141v-233h20q52 0 102 -20.5t82.5 -64.5t32.5 -115v-163q0 -60 -22 -99.5t-56 -63t-71 -33t-68 -9.5h-20v-180h-141zM264 105h13v380h-14q-19 0 -35 -10.5
t-25.5 -31.5t-9.5 -53v-188q0 -31 9 -53t25 -33t37 -11zM418 105h11q20 0 36.5 11t27 33t10.5 53v188q0 32 -10 53t-26.5 31.5t-36.5 10.5h-12v-380z" />
    <glyph glyph-name="uni0445" unicode="&#x445;" horiz-adv-x="442" 
d="M11 0l123 317l-117 261h164l62 -139l55 139h125l-114 -285l131 -293h-166l-70 159l-58 -159h-135z" />
    <glyph glyph-name="uni0446" unicode="&#x446;" horiz-adv-x="549" 
d="M437 -160l-11 160h-376v578h164v-478h87v478h163v-478h84v-260h-111z" />
    <glyph glyph-name="uni0447" unicode="&#x447;" horiz-adv-x="496" 
d="M282 0v233q-13 -1 -26.5 -2t-26.5 -1q-74 0 -115.5 17.5t-58 50t-16.5 77.5v203h162v-193q0 -31 12 -46t49 -17q5 0 9.5 0.5t10.5 0.5v255h163v-578h-163z" />
    <glyph glyph-name="uni0448" unicode="&#x448;" horiz-adv-x="712" 
d="M50 0v578h152v-468h77v468h152v-468h77v468h152v-578h-610z" />
    <glyph glyph-name="uni0449" unicode="&#x449;" horiz-adv-x="743" 
d="M630 -160l-10 160h-572v578h152v-478h77v478h152v-478h77v478h152v-478h83v-260h-111z" />
    <glyph glyph-name="uni044A" unicode="&#x44a;" horiz-adv-x="558" 
d="M116 0v468h-110v110h272v-232h6q60 0 106 -8.5t76.5 -28.5t46.5 -54t16 -86q0 -45 -13.5 -77.5t-43 -52.5t-76 -29.5t-111.5 -9.5h-169zM278 93h4q37 1 58.5 8t31 23t9.5 44q0 32 -10 49.5t-31 25t-56 7.5h-6v-157z" />
    <glyph glyph-name="uni044B" unicode="&#x44b;" horiz-adv-x="740" 
d="M51 0v578h163v-232h1.5h1.5h2q60 0 106 -8.5t76.5 -28t46.5 -52.5t16 -83q0 -47 -13.5 -80t-43 -54t-76 -30.5t-111.5 -9.5h-169zM214 93h3q37 0 58.5 7.5t31 25t9.5 46.5q0 31 -9.5 47.5t-31 23.5t-56.5 7h-2.5h-2.5v-157zM526 0v578h163v-578h-163z" />
    <glyph glyph-name="uni044C" unicode="&#x44c;" horiz-adv-x="492" 
d="M51 0v578h163v-232h1.5h1.5h2q60 0 106 -8t76.5 -27.5t46.5 -52t16 -82.5q0 -47 -13.5 -80.5t-43 -54.5t-76 -31t-111.5 -10h-169zM214 93h3q37 0 58.5 7.5t31 25t9.5 46.5q0 31 -9.5 47.5t-31 23.5t-56.5 7h-2.5h-2.5v-157z" />
    <glyph glyph-name="uni044D" unicode="&#x44d;" horiz-adv-x="476" 
d="M237 -10q-61 0 -104.5 19t-67 57.5t-23.5 96.5v30h157v-31q0 -34 10 -45.5t28 -11.5q13 0 21 6t12 21t4 41v78h-133v69h133v86q0 26 -4.5 40.5t-12.5 20t-20 5.5q-19 0 -28.5 -12.5t-9.5 -44.5v-41h-157v39q0 58 23.5 97t67.5 58.5t104 19.5q64 0 108.5 -23t68 -66
t23.5 -104v-213q0 -61 -23.5 -104t-68.5 -65.5t-108 -22.5z" />
    <glyph glyph-name="yucy" unicode="&#x44e;" horiz-adv-x="701" 
d="M470 -10q-58 0 -101 21t-66 63t-23 105v54h-69v-233h-160v578h160v-231h69v52q0 63 23 105t66 63t101 21t101 -21t66.5 -63t23.5 -105v-220q0 -63 -23.5 -105t-66.5 -63t-101 -21zM470 106q16 0 24 8t11.5 23.5t3.5 37.5v228q0 22 -3.5 37.5t-11.5 23.5t-24 8
q-14 0 -22.5 -8.5t-12 -23.5t-3.5 -37v-228q0 -21 3.5 -36.5t12 -24t22.5 -8.5z" />
    <glyph glyph-name="yacy" unicode="&#x44f;" horiz-adv-x="516" 
d="M17 0l90 240q-23 13 -39 36t-24 54t-8 67q0 40 11.5 73t37 57t66.5 37.5t99 13.5h215v-578h-162v206q-4 0 -22 0.5t-27 1.5l-65 -208h-172zM296 302h4h3v184h-3h-4q-37 0 -62 -10t-37.5 -29.5t-12.5 -48.5q0 -49 29.5 -72t82.5 -24z" />
    <glyph glyph-name="uni0450" unicode="&#x450;" horiz-adv-x="470" 
d="M240 -10q-63 0 -108 22.5t-69 66t-24 104.5v212q0 62 24 105t69.5 65.5t107.5 22.5q64 0 106.5 -22t64 -65t21.5 -106v-116h-232v-111q0 -22 5 -36t14 -20t21 -6t21.5 5.5t15 17.5t5.5 33v61h150v-56q0 -88 -51 -132.5t-141 -44.5zM200 355h82v58q0 23 -5.5 36t-15 18
t-22.5 5q-12 0 -20.5 -6t-13.5 -20.5t-5 -41.5v-49zM190 642l-127 201h168l61 -201h-102z" />
    <glyph glyph-name="uni0451" unicode="&#x451;" horiz-adv-x="470" 
d="M240 -10q-63 0 -108 22.5t-69 66t-24 104.5v212q0 62 24 105t69.5 65.5t107.5 22.5q64 0 106.5 -22t64 -65t21.5 -106v-116h-232v-111q0 -22 5 -36t14 -20t21 -6t21.5 5.5t15 17.5t5.5 33v61h150v-56q0 -88 -51 -132.5t-141 -44.5zM200 355h82v58q0 23 -5.5 36t-15 18
t-22.5 5q-12 0 -20.5 -6t-13.5 -20.5t-5 -41.5v-49zM282 662v148h130v-148h-130zM64 662v148h130v-148h-130z" />
    <glyph glyph-name="uni0452" unicode="&#x452;" horiz-adv-x="510" 
d="M292 -169q-15 0 -29.5 1.5t-28.5 2.5v96h16q25 0 37 11t16.5 30t4.5 43v294q0 31 -7.5 47.5t-30.5 16.5q-8 0 -17.5 -2.5t-18 -6t-15.5 -6.5v-358h-163v810h163v-358q18 8 38.5 14.5t41.5 11t42 4.5q53 0 81 -25.5t38.5 -66.5t10.5 -88v-298q0 -57 -17 -95.5t-56.5 -58
t-105.5 -19.5zM-7 584v104h352v-104h-352z" />
    <glyph glyph-name="uni0453" unicode="&#x453;" horiz-adv-x="352" 
d="M51 0v578h288v-110h-125v-468h-163zM152 642l63 201h166l-126 -201h-103z" />
    <glyph glyph-name="uni0454" unicode="&#x454;" horiz-adv-x="461" 
d="M239 -10q-63 0 -107.5 23t-68.5 66t-24 104v212q0 62 24 105t68.5 65.5t107.5 22.5q62 0 105.5 -19t67 -57.5t23.5 -97.5v-40h-158v41q0 24 -4.5 36.5t-12.5 17t-20 4.5t-20.5 -6t-12.5 -21t-4 -41v-75h133v-72h-133v-85q0 -40 9.5 -53.5t28.5 -13.5q12 0 20 5.5t12 18
t4 33.5v52h158v-49q0 -58 -23.5 -97.5t-67 -59t-105.5 -19.5z" />
    <glyph glyph-name="uni0455" unicode="&#x455;" horiz-adv-x="424" 
d="M229 -10q-76 0 -126.5 34t-82.5 111l111 49q16 -39 37.5 -61.5t47.5 -22.5q19 0 28.5 8t9.5 22q0 23 -17.5 42t-62.5 56l-42 35q-46 39 -72.5 75.5t-26.5 90.5q0 47 24.5 83t65.5 56t88 20q72 0 120 -39t68 -110l-107 -48q-6 19 -17 38t-26 32t-34 13q-16 0 -25.5 -9
t-9.5 -24q0 -19 21.5 -41t59.5 -53l41 -36q25 -21 49 -45t39.5 -53t15.5 -66q0 -50 -25 -85.5t-65.5 -53.5t-86.5 -18z" />
    <glyph glyph-name="uni0456" unicode="&#x456;" horiz-adv-x="265" 
d="M52 0v578h163v-578h-163zM51 676v113h164v-113h-164z" />
    <glyph glyph-name="uni0457" unicode="&#x457;" horiz-adv-x="280" 
d="M59 0v578h163v-578h-163zM185 662v148h130v-148h-130zM-33 662v148h130v-148h-130z" />
    <glyph glyph-name="uni0458" unicode="&#x458;" horiz-adv-x="269" 
d="M70 -180q-22 0 -44.5 3.5t-42.5 9.5v117q8 -1 15.5 -2.5t13.5 -1.5q14 0 24 5t15.5 15.5t5.5 28.5v583h162v-603q0 -68 -37.5 -111.5t-111.5 -43.5zM56 676v113h164v-113h-164z" />
    <glyph glyph-name="uni0459" unicode="&#x459;" horiz-adv-x="810" 
d="M34 -6v115q44 0 66.5 18.5t33.5 66t17 133.5l19 251h368v-233h6q59 0 103.5 -8.5t75 -27.5t46 -51.5t15.5 -81.5q0 -47 -14 -80.5t-43 -54.5t-74.5 -31t-107.5 -10h-170v468h-67l-13 -176q-7 -91 -21 -149.5t-39.5 -91t-67 -45t-104.5 -12.5h-29zM538 93h4q35 0 55.5 7.5
t29.5 25t9 45.5q0 30 -10 47t-30.5 24t-54.5 7h-3v-156z" />
    <glyph glyph-name="uni045A" unicode="&#x45a;" horiz-adv-x="725" 
d="M51 0v578h163v-231h84v232h163v-233h3.5h3.5h3q56 -1 99 -10.5t72 -29.5t43.5 -53.5t14.5 -82.5q0 -45 -13.5 -77t-42 -52.5t-73.5 -30t-109 -9.5h-164v213h-84v-214h-163zM461 94h2h2h1q32 1 51 8.5t27.5 23.5t8.5 42q0 31 -9 48t-28 24.5t-50 8.5h-2h-1.5h-1.5v-155z
" />
    <glyph glyph-name="uni045B" unicode="&#x45b;" horiz-adv-x="518" 
d="M56 0v810h163v-358q18 8 38.5 14.5t41.5 11t42 4.5q53 0 81 -25.5t38.5 -66t10.5 -86.5v-304h-163v311q0 29 -7.5 45.5t-30.5 16.5q-7 0 -16.5 -2.5t-18.5 -6t-16 -6.5v-358h-163zM-7 567v106h352v-106h-352z" />
    <glyph glyph-name="uni045C" unicode="&#x45c;" horiz-adv-x="513" 
d="M51 0v578h163v-228h24l88 228h175l-114 -273l117 -305h-172l-94 256h-24v-256h-163zM223 642l63 201h166l-126 -201h-103z" />
    <glyph glyph-name="uni045D" unicode="&#x45d;" horiz-adv-x="508" 
d="M51 0v578h129v-309l151 309h127v-578h-132v306l-147 -306h-128zM208 642l-127 201h168l61 -201h-102z" />
    <glyph glyph-name="uni045E" unicode="&#x45e;" horiz-adv-x="448" 
d="M67 -168v113q31 0 51.5 4t31 15t10.5 30q0 17 -6 41.5t-15 55.5l-136 487h153l73 -334l55 334h154l-133 -592q-13 -60 -41 -93.5t-68.5 -47t-91.5 -13.5h-37zM235 643q-71 0 -114 40t-43 116h92q0 -37 14.5 -55t50.5 -18q35 0 50 18.5t15 54.5h92q0 -76 -43 -116
t-114 -40z" />
    <glyph glyph-name="uni045F" unicode="&#x45f;" horiz-adv-x="518" 
d="M209 -160l-10 160h-148v578h163v-479h90v479h162v-578h-138l-9 -160h-110z" />
    <glyph glyph-name="uni0462" unicode="&#x462;" horiz-adv-x="588" 
d="M95 0v810h179v-342h40q72 0 125.5 -25t83.5 -76.5t30 -132.5q0 -74 -19.5 -120t-54.5 -71t-81.5 -34t-100.5 -9h-202zM274 117h24q34 0 54 13t28.5 40t6.5 68q0 45 -18 75.5t-73 30.5h-22v-227zM6 567v111h401v-111h-401z" />
    <glyph glyph-name="uni0463" unicode="&#x463;" horiz-adv-x="531" 
d="M90 0v810h163v-464h2h2h2q60 0 105.5 -8.5t76.5 -28.5t47 -54t16 -85q0 -46 -14 -78t-43 -52.5t-75.5 -30t-112.5 -9.5h-169zM253 93h4q36 1 57.5 8t31.5 23t10 44q0 32 -10 49.5t-31 25t-56 7.5h-2.5h-3.5v-157zM6 474v104h387v-104h-387z" />
    <glyph glyph-name="uni046A" unicode="&#x46a;" horiz-adv-x="759" 
d="M6 0l232 530l139 -105l142 109l235 -534h-159l-137 375h-8v-375h-141v375h-7l-138 -375h-158zM286 410l-206 400h592l-198 -400h-188zM361 453l118 279l36 -33h-276l35 32l126 -278h-39z" />
    <glyph glyph-name="uni046B" unicode="&#x46b;" horiz-adv-x="611" 
d="M7 0l168 369l130 -100l133 100l166 -369h-134l-94 241h-7v-241h-127v241h-6l-94 -241h-135zM316 299h-18l86 211l5 -26h-170l6 25zM218 259l-153 319h478l-149 -319h-176z" />
    <glyph glyph-name="uni0472" unicode="&#x472;" 
d="M139 365v110h303v-110h-303zM292 -12q-91 0 -144 32t-76 92t-23 143v301q0 84 23 143t76 90.5t144 31.5q92 0 145.5 -31.5t76.5 -90.5t23 -143v-301q0 -83 -23 -143t-76.5 -92t-145.5 -32zM292 115q28 0 41 14t17 36t4 45v390q0 24 -4 45.5t-17 35.5t-41 14
q-26 0 -39 -14t-17 -35.5t-4 -45.5v-390q0 -23 3.5 -45t16 -36t40.5 -14z" />
    <glyph glyph-name="uni0473" unicode="&#x473;" horiz-adv-x="483" 
d="M122 254v78h245v-78h-245zM241 -10q-62 0 -107.5 21t-70 63t-24.5 105v220q0 63 24.5 105t70 63t107.5 21t107.5 -21t70.5 -63t25 -105v-220q0 -63 -25 -105t-70.5 -63t-107.5 -21zM242 98q16 0 25 8.5t12.5 24t3.5 37.5v242q0 22 -3.5 37.5t-12.5 24t-25 8.5t-25 -8.5
t-13 -24t-4 -37.5v-242q0 -22 4 -37.5t13 -24t25 -8.5z" />
    <glyph glyph-name="uni0474" unicode="&#x474;" horiz-adv-x="590" 
d="M168 0l-146 810h153l87 -550l49 325q11 76 34 131t64.5 84.5t107.5 29.5q11 0 22 -1t24 -3l-9 -104q-21 0 -35 -9t-25 -33t-21.5 -66.5t-22.5 -108.5l-93 -505h-189z" />
    <glyph glyph-name="uni0475" unicode="&#x475;" horiz-adv-x="472" 
d="M126 0l-116 578h156l48 -369l22 164q10 82 32 132.5t57.5 74t85.5 23.5q11 0 25 -1t26 -3l-8 -97q-26 0 -42.5 -18.5t-28 -60.5t-26.5 -113l-62 -310h-169z" />
    <glyph glyph-name="uni048A" unicode="&#x48a;" horiz-adv-x="614" 
d="M427 -175l45 296h140l-67 -296h-118zM63 0v810h141v-464l207 464h116v-810h-144v472l-211 -472h-109zM306 875q-71 0 -114 40t-43 116h92q0 -37 14.5 -55t50.5 -18q35 0 50 18.5t15 54.5h92q0 -76 -43 -116t-114 -40z" />
    <glyph glyph-name="uni048B" unicode="&#x48b;" horiz-adv-x="557" 
d="M365 -160l45 260h127l-63 -260h-109zM51 0v578h129v-309l151 309h127v-578h-132v306l-147 -306h-128zM254 643q-71 0 -114 40t-43 116h92q0 -37 14.5 -55t50.5 -18t50.5 18.5t14.5 54.5h92q0 -76 -43 -116t-114 -40z" />
    <glyph glyph-name="uni048C" unicode="&#x48c;" horiz-adv-x="588" 
d="M95 0v810h179v-342h39q77 0 130 -25t81 -76.5t28 -132.5q0 -74 -19.5 -120t-54.5 -71t-81.5 -34t-99.5 -9h-202zM274 117h24q34 0 53.5 13t28 40t7.5 68q-1 45 -19 75.5t-72 30.5h-22v-227zM6 568v111h401v-111h-401z" />
    <glyph glyph-name="uni048D" unicode="&#x48d;" horiz-adv-x="536" 
d="M95 0v810h162v-464h2h2h2q60 0 106 -8.5t76.5 -28.5t46.5 -54t16 -85q0 -46 -13.5 -78t-43 -52.5t-76 -30t-111.5 -9.5h-169zM257 93h4q37 1 58.5 8t31 23t9.5 44q0 32 -10 49.5t-31 25t-56 7.5h-2.5h-3.5v-157zM10 474v104h387v-104h-387z" />
    <glyph glyph-name="uni048E" unicode="&#x48e;" horiz-adv-x="571" 
d="M60 0v810h272q73 0 120 -27t70 -80t23 -132q0 -72 -18.5 -118t-50.5 -71.5t-74.5 -35.5t-90.5 -10h-72v-336h-179zM510 277l-244 238l57 56l244 -238zM239 461h60q33 0 50 12t22.5 37t5.5 63q0 33 -4.5 58t-21 39t-53.5 14h-59v-223z" />
    <glyph glyph-name="uni048F" unicode="&#x48f;" horiz-adv-x="505" 
d="M51 -190v768h163v-42q29 26 69.5 39t71.5 13q33 0 56 -13.5t38 -37t22 -54t7 -65.5v-249q0 -40 -7.5 -73t-23.5 -57t-40.5 -36.5t-58.5 -12.5t-69.5 14.5t-64.5 39.5v-234h-163zM469 -87l-240 237l46 46l240 -237zM280 89q15 0 25.5 9t16 25t5.5 37v256q0 25 -7.5 41
t-22 24.5t-34.5 8.5q-16 0 -26.5 -5t-22.5 -15v-360q11 -7 28.5 -14t37.5 -7z" />
    <glyph glyph-name="Geupturncy" unicode="&#x490;" horiz-adv-x="461" 
d="M63 0v810h270v131h105v-264h-196v-677h-179z" />
    <glyph glyph-name="geupturncy" unicode="&#x491;" horiz-adv-x="353" 
d="M51 0v578h210v122h83v-232h-130v-468h-163z" />
    <glyph glyph-name="Gestrokecy" unicode="&#x492;" horiz-adv-x="502" 
d="M101 0v810h376v-121h-197v-689h-179zM26 376v114h383v-114h-383z" />
    <glyph glyph-name="gestrokecy" unicode="&#x493;" horiz-adv-x="379" 
d="M8 344h324v-104h-324v104zM235 0h-163v578h289v-121h-126v-457z" />
    <glyph glyph-name="Gemiddlehookcy" unicode="&#x494;" horiz-adv-x="604" 
d="M376 -166q-20 0 -31.5 0.5t-18.5 1.5t-13 2v101q8 0 14.5 1t13.5 3q15 4 24.5 12t14.5 21t5 31v284q0 43 -16 63.5t-57 20.5q-18 0 -35 -5.5t-37 -16.5v-353h-177v810h373v-125h-196v-242q28 19 63.5 28.5t71.5 9.5q55 0 97 -19.5t66 -61.5t24 -110v-286
q0 -48 -19.5 -86.5t-60.5 -61t-106 -22.5z" />
    <glyph glyph-name="gemiddlehookcy" unicode="&#x495;" horiz-adv-x="510" 
d="M292 -169q-15 0 -29.5 1.5t-28.5 2.5v96h16q25 0 37 11t16.5 30.5t4.5 42.5v182q0 31 -7.5 47.5t-30.5 16.5q-8 0 -17.5 -2t-18 -5.5t-15.5 -6.5v-247h-163v578h304v-121h-141v-116q14 6 30 13t36 12t44 5q55 0 86 -21t43.5 -57t12.5 -81v-208q0 -57 -17 -95.5t-56.5 -58
t-105.5 -19.5z" />
    <glyph glyph-name="uni0496" unicode="&#x496;" horiz-adv-x="844" 
d="M6 0l170 407l-166 403h167l141 -379h8v379h142v-379h9l141 379h167l-166 -403l170 -407h-160l-152 393h-9v-393h-142v393h-8l-152 -393h-160zM703 -160l-24 281h139v-281h-115zM642 121h148v-121h-148v121z" />
    <glyph glyph-name="uni0497" unicode="&#x497;" horiz-adv-x="696" 
d="M585 -160l-18 260h128v-260h-110zM7 0l115 291l-108 287h141l92 -274h12v274h136v-274h11l98 274h143l-115 -287l121 -291h-135l-112 279h-11v-279h-136v279h-12l-105 -279h-135z" />
    <glyph glyph-name="uni0498" unicode="&#x498;" horiz-adv-x="526" 
d="M266 -15q-85 0 -133.5 32t-69 89.5t-20.5 132.5v29h168v-12v-19q0 -60 12 -85.5t46 -25.5q23 0 34.5 12t16 35.5t4.5 59.5q0 61 -18 92.5t-75 32.5q-1 1 -8.5 1h-17.5h-19v109h14h14h13q59 1 78 32t19 92q0 47 -14.5 72t-48.5 25q-33 0 -45.5 -26.5t-13.5 -70.5v-16.5
v-28.5h-168v49q0 73 28.5 123.5t79.5 76.5t120 26q71 0 121.5 -25t77.5 -73.5t27 -120.5q0 -71 -29 -119.5t-70 -59.5q28 -11 50.5 -32.5t35.5 -58.5t13 -95q0 -74 -21.5 -131.5t-70.5 -89.5t-130 -32zM210 -160l-13 243h140l-14 -243h-113z" />
    <glyph glyph-name="uni0499" unicode="&#x499;" horiz-adv-x="450" 
d="M223 -11q-60 0 -96.5 16.5t-56 45t-26 65t-6.5 76.5h129q0 -46 14.5 -68.5t45.5 -22.5q23 0 35 10t16.5 28t4.5 40q0 29 -10.5 46t-34 24.5t-63.5 7.5v84q60 0 78.5 16t18.5 56q0 29 -11.5 46t-40.5 17q-31 0 -43.5 -17.5t-12.5 -61.5h-128q0 52 16 95.5t57.5 69.5
t118.5 26q68 0 110.5 -21.5t62 -58t19.5 -82.5q0 -38 -12 -64t-31 -40.5t-42 -21.5q25 -9 44.5 -24t31.5 -42.5t12 -74.5q0 -73 -47 -121.5t-153 -48.5zM175 -160l-8 190h124l-8 -190h-108z" />
    <glyph glyph-name="uni049A" unicode="&#x49a;" horiz-adv-x="600" 
d="M60 0v810h179v-331l136 331h175l-150 -366l157 -444h-182l-117 358l-19 -32v-326h-179zM474 -175l-25 296h139v-296h-114zM402 121h148v-121h-148v121z" />
    <glyph glyph-name="uni049B" unicode="&#x49b;" horiz-adv-x="550" 
d="M440 -160l-17 260h128v-260h-111zM51 0v578h163v-228h24l88 228h175l-114 -273l117 -305h-172l-94 256h-24v-256h-163z" />
    <glyph glyph-name="uni049C" unicode="&#x49c;" horiz-adv-x="701" 
d="M63 0v810h179v-321h147l119 321h178l-148 -380l153 -430h-184l-118 353h-147v-353h-179zM360 201h-88v401h88v-401z" />
    <glyph glyph-name="uni049D" unicode="&#x49d;" 
d="M51 0v578h163v-228h101l89 228h175l-114 -273l117 -305h-172l-95 256h-101v-256h-163zM236 147v304h66v-304h-66z" />
    <glyph glyph-name="uni049E" unicode="&#x49e;" horiz-adv-x="580" 
d="M0 646v100h304v-100h-304zM63 0v810h179v-321h26l119 321h177l-147 -380l153 -430h-184l-118 353h-26v-353h-179z" />
    <glyph glyph-name="uni049F" unicode="&#x49f;" horiz-adv-x="582" 
d="M-1 617v104h385v-104h-385zM91 0v810h163v-460h24l88 228h176l-115 -273l118 -305h-173l-94 256h-24v-256h-163z" />
    <glyph glyph-name="uni04A0" unicode="&#x4a0;" horiz-adv-x="644" 
d="M134 0v810h179v-321h18l119 321h178l-148 -380l153 -430h-183l-119 353h-18v-353h-179zM12 677v133h301v-133h-301z" />
    <glyph glyph-name="uni04A1" unicode="&#x4a1;" horiz-adv-x="583" 
d="M121 0v578h162v-228h24l88 228h176l-115 -273l118 -305h-173l-94 256h-24v-256h-162zM16 468v110h267v-110h-267z" />
    <glyph glyph-name="uni04A2" unicode="&#x4a2;" horiz-adv-x="653" 
d="M63 0v810h179v-328h125v328h180v-810h-180v354h-125v-354h-179zM515 -160l-24 281h138v-281h-114zM425 121h148v-121h-148v121z" />
    <glyph glyph-name="uni04A3" unicode="&#x4a3;" horiz-adv-x="554" 
d="M441 -160l-18 260h129v-260h-111zM51 0v578h163v-224h97v224h163v-578h-163v242h-97v-242h-163z" />
    <glyph glyph-name="EnGecy" unicode="&#x4a4;" horiz-adv-x="767" 
d="M63 0v810h179v-328h125v328h180v-810h-180v354h-125v-354h-179zM368 0v810h374v-133h-196v-677h-178z" />
    <glyph glyph-name="engecy" unicode="&#x4a5;" horiz-adv-x="612" 
d="M599 578v-110h-125v-468h-163v242h-97v-242h-163v578h163v-224h97v224h288z" />
    <glyph glyph-name="uni04A6" unicode="&#x4a6;" horiz-adv-x="909" 
d="M682 -166q-19 0 -30.5 0.5t-18.5 1.5l-14 2v101q8 0 14.5 1t13.5 2q15 4 25 12t15 21.5t5 31.5v284q0 43 -16.5 63.5t-57.5 20.5q-16 0 -33.5 -5.5t-35.5 -16.5v-353h-178v682h-132v-682h-176v810h486v-366q27 18 62 27.5t70 9.5q56 0 98 -19.5t66 -61.5t24 -110v-286
q0 -48 -19.5 -86.5t-61 -61t-106.5 -22.5z" />
    <glyph glyph-name="uni04A7" unicode="&#x4a7;" horiz-adv-x="752" 
d="M473 -166v81h11q28 0 42 12t19 34.5t5 51.5v184q0 31 -8 47.5t-30 16.5q-10 0 -19 -2t-17 -5.5t-15 -6.5v-247h-163v467h-84v-467h-163v578h410v-237q14 6 30 13t35.5 12t43.5 5q55 0 86 -21t44 -57t13 -81v-182q0 -52 -7.5 -89t-30 -60.5t-66.5 -35t-117 -11.5h-19z" />
    <glyph glyph-name="uni04A8" unicode="&#x4a8;" horiz-adv-x="825" 
d="M798 6q-16 -6 -41.5 -11.5t-62.5 -5.5q-77 0 -142 29.5t-113.5 79.5t-75 113.5t-26.5 131.5v250q0 65 20 116.5t66.5 81.5t123.5 30q74 0 123 -28t73.5 -79t24.5 -122v-249q0 -60 -22 -122.5t-69 -115.5t-122 -85t-182 -32q-90 0 -152 23t-99 64t-54 96.5t-17 119.5v263
q0 81 28.5 141t87 93t147.5 33v-130q-32 0 -51.5 -16t-27.5 -48.5t-8 -81.5v-245q0 -69 19 -110t55.5 -59t90.5 -18q60 0 101 16t65 46t35 71.5t11 93.5v253q0 38 -4.5 60.5t-15 32t-29.5 9.5q-24 0 -35.5 -13.5t-14.5 -36.5t-3 -52v-252q0 -61 15.5 -104.5t43.5 -70.5
t67 -39.5t86 -12.5q24 0 47 2t37 6v-116z" />
    <glyph glyph-name="uni04A9" unicode="&#x4a9;" horiz-adv-x="740" 
d="M716 5q-16 -6 -39.5 -11t-58.5 -5q-76 0 -137.5 23t-105 61t-67 82.5t-23.5 86.5v160q0 50 18.5 92t62 68t116.5 26q64 0 107 -25t65 -66.5t22 -91.5v-163q0 -32 -19 -75t-60.5 -84t-110.5 -68t-168 -27q-82 0 -136 20t-85 54.5t-44 80t-13 96.5v128q0 45 13 85t41 70.5
t71.5 48t104.5 17.5v-98q-27 0 -43 -14t-22.5 -40t-6.5 -63v-133q0 -51 15.5 -83t46 -46.5t75.5 -14.5q52 0 94 17.5t66.5 50t24.5 78.5v168q0 32 -6.5 51t-31.5 19t-33 -19t-8 -51v-168q0 -40 23.5 -73t68.5 -52.5t107 -20.5q21 0 41 1.5t35 4.5v-97z" />
    <glyph glyph-name="uni04AA" unicode="&#x4aa;" horiz-adv-x="563" 
d="M292 -12q-92 0 -145.5 33.5t-75.5 94t-22 142.5v292q0 84 22 144.5t75.5 93.5t145.5 33q90 0 140.5 -29.5t71.5 -82.5t21 -122v-70h-175v81q0 24 -2.5 46t-14.5 36.5t-41 14.5q-28 0 -41.5 -15t-17 -37.5t-3.5 -47.5v-381q0 -27 4.5 -49.5t18 -36t39.5 -13.5
q28 0 40 14.5t15 37.5t3 47v85h175v-70q0 -69 -20.5 -123.5t-71 -86t-141.5 -31.5zM228 -160l-7 243h129l-9 -243h-113z" />
    <glyph glyph-name="uni04AB" unicode="&#x4ab;" horiz-adv-x="468" 
d="M239 -10q-63 0 -107.5 23t-68.5 66t-24 104v212q0 62 24 105t68.5 65.5t107.5 22.5q62 0 105.5 -19t66.5 -57.5t23 -97.5v-61h-157v66q0 23 -4.5 35.5t-13 17.5t-20.5 5t-20 -6.5t-12 -21t-4 -40.5v-240q0 -39 9.5 -53t27.5 -14q13 0 21 5.5t12 18t4 33.5v77h157v-70
q0 -58 -23.5 -97.5t-67 -59t-104.5 -19.5zM181 -160l-8 190h124l-8 -190h-108z" />
    <glyph glyph-name="uni04AC" unicode="&#x4ac;" horiz-adv-x="445" 
d="M133 0v677h-122v133h423v-133h-121v-677h-180zM282 -160l-25 281h138v-281h-113zM193 121h148v-121h-148v121z" />
    <glyph glyph-name="uni04AD" unicode="&#x4ad;" horiz-adv-x="405" 
d="M121 0v468h-105v110h372v-110h-105v-468h-162zM251 -160l-18 260h129v-260h-111z" />
    <glyph glyph-name="uni04AE" unicode="&#x4ae;" horiz-adv-x="493" 
d="M162 0v331l-154 479h169l77 -256l69 256h162l-151 -479v-331h-172z" />
    <glyph glyph-name="uni04AF" unicode="&#x4af;" horiz-adv-x="447" 
d="M157 -175v255l-154 498h146l78 -299l65 299h146l-139 -496v-257h-142z" />
    <glyph glyph-name="uni04B0" unicode="&#x4b0;" horiz-adv-x="502" 
d="M26 275v110h458v-110h-458zM169 0v331l-154 479h169l77 -256l69 256h162l-151 -479v-331h-172z" />
    <glyph glyph-name="uni04B1" unicode="&#x4b1;" horiz-adv-x="448" 
d="M42 -14v104h369v-104h-369zM157 -175v255l-154 498h146l78 -299l65 299h146l-139 -496v-257h-142z" />
    <glyph glyph-name="uni04B2" unicode="&#x4b2;" horiz-adv-x="548" 
d="M7 0l157 436l-150 374h169l89 -219l72 219h149l-142 -421l158 -389h-168l-99 242l-87 -242h-148zM417 -160l-24 281h138v-281h-114zM349 121h148v-121h-148v121z" />
    <glyph glyph-name="uni04B3" unicode="&#x4b3;" horiz-adv-x="502" 
d="M11 0l123 317l-117 261h164l62 -139l55 139h125l-114 -285l131 -293h-166l-70 159l-58 -159h-135zM387 -160l-18 260h128v-260h-110z" />
    <glyph glyph-name="uni04B4" unicode="&#x4b4;" horiz-adv-x="772" 
d="M654 121h81v-281h-113l-17 160h-472v677h-122v133h399v-133h-97v-556h162v689h179v-689z" />
    <glyph glyph-name="uni04B5" unicode="&#x4b5;" horiz-adv-x="649" 
d="M548 100h83v-260h-111l-10 160h-390v468h-104v110h327v-110h-60v-368h102v478h163v-478z" />
    <glyph glyph-name="uni04B6" unicode="&#x4b6;" horiz-adv-x="639" 
d="M367 0v333q-50 -7 -98 -7q-58 0 -109.5 22.5t-83.5 66t-32 106.5v289h179v-288q0 -25 5.5 -44.5t26 -30.5t64.5 -11q11 0 23 1t25 3v370h179v-810h-179zM515 -160l-25 281h138v-281h-113zM411 121h148v-121h-148v121z" />
    <glyph glyph-name="uni04B7" unicode="&#x4b7;" horiz-adv-x="525" 
d="M282 0v233q-13 -1 -26.5 -2t-26.5 -1q-74 0 -115.5 17.5t-58 50t-16.5 77.5v203h162v-193q0 -31 12 -46t49 -17q5 0 9.5 0.5t10.5 0.5v255h163v-578h-163zM413 -160l-18 260h128v-260h-110z" />
    <glyph glyph-name="uni04B8" unicode="&#x4b8;" horiz-adv-x="639" 
d="M352 201h-87v377h87v-377zM399 0v333q-28 -4 -55.5 -5.5t-52.5 -1.5q-74 0 -132 19.5t-91.5 62.5t-33.5 113v289h177v-269q0 -34 7.5 -57.5t37 -35.5t93.5 -12q11 0 24 1t26 3v370h177v-810h-177z" />
    <glyph glyph-name="uni04B9" unicode="&#x4b9;" horiz-adv-x="529" 
d="M315 0v234q-25 -1 -51 -2.5t-39 -1.5q-81 0 -125.5 17.5t-61.5 50t-17 77.5v203h162v-193q0 -21 5.5 -34.5t21.5 -20.5t47 -7q13 0 31.5 1t26.5 2v252h163v-578h-163zM213 140v293h72v-293h-72z" />
    <glyph glyph-name="uni04BA" unicode="&#x4ba;" horiz-adv-x="606" 
d="M239 810v-335q26 5 47 7t43 2q107 0 170 -51.5t63 -156.5v-276h-179v237q0 51 -8 81t-27.5 43t-54.5 13q-11 0 -26 -2t-28 -5v-367h-179v810h179z" />
    <glyph glyph-name="uni04BB" unicode="&#x4bb;" horiz-adv-x="509" 
d="M52 0v810h162v-283q32 32 67 46.5t75 14.5q35 0 58.5 -17.5t35.5 -48t12 -69.5v-453h-162v430q0 21 -7 32t-26 11q-10 0 -24 -5.5t-29 -15.5v-452h-162z" />
    <glyph glyph-name="uni04BC" unicode="&#x4bc;" horiz-adv-x="807" 
d="M517 -12q-74 0 -128.5 30.5t-84 88t-29.5 138.5v320q0 81 29.5 138t84 87.5t128.5 30.5q79 0 133.5 -28.5t83.5 -83.5t29 -136v-185h-305v-186q0 -32 6.5 -51.5t20.5 -28t34 -8.5t33.5 8.5t20.5 28t7 51.5v116h183v-83q0 -81 -29 -136t-84 -83t-133 -28zM285 388
q-84 0 -136 17t-80 47.5t-37 72.5t-6 93h167q-4 -38 3 -65.5t28.5 -42.5t60.5 -15h31v-107h-31zM458 495h122v112q0 31 -6.5 50.5t-20.5 28.5t-35 9q-20 0 -33.5 -9t-20 -28.5t-6.5 -50.5v-112z" />
    <glyph glyph-name="uni04BD" unicode="&#x4bd;" horiz-adv-x="655" 
d="M425 -10q-63 0 -108 22.5t-69 66t-24 104.5v212q0 62 24 105t69.5 65.5t107.5 22.5q64 0 106.5 -22t64 -65t21.5 -106v-116h-232v-111q0 -22 5 -36t14 -20t21 -6t21.5 5.5t14.5 17.5t5 33v61h151v-56q0 -88 -51 -132.5t-141 -44.5zM244 280q-74 0 -119.5 12.5t-69.5 36
t-31 56.5t-5 73h141q-2 -38 5 -60.5t27 -32.5t54 -10h30v-75h-32zM385 355h81v58q0 23 -5.5 36t-14.5 18t-22 5q-12 0 -20.5 -6t-13.5 -20.5t-5 -41.5v-49z" />
    <glyph glyph-name="uni04BE" unicode="&#x4be;" horiz-adv-x="805" 
d="M458 -160l-7 243h129l-9 -243h-113zM517 -12q-74 0 -128.5 30.5t-84 88t-29.5 138.5v320q0 81 29.5 138t84 87.5t128.5 30.5q79 0 133.5 -28.5t83.5 -83.5t29 -136v-185h-305v-186q0 -32 6.5 -51.5t20.5 -28t34 -8.5t33.5 8.5t20.5 28t7 51.5v116h183v-83q0 -81 -29 -136
t-84 -83t-133 -28zM285 388q-84 0 -136 17t-80 47.5t-37 72.5t-6 93h167q-4 -38 3 -65.5t28.5 -42.5t60.5 -15h31v-107h-31zM458 495h122v112q0 31 -6.5 50.5t-20.5 28.5t-35 9q-20 0 -33.5 -9t-20 -28.5t-6.5 -50.5v-112zM561 894v148h130v-148h-130zM343 894v148h130v-148
h-130z" />
    <glyph glyph-name="uni04BF" unicode="&#x4bf;" horiz-adv-x="648" 
d="M372 -160l-8 192h125l-9 -192h-108zM425 -10q-63 0 -108 22.5t-69 66t-24 104.5v212q0 62 24 105t69.5 65.5t107.5 22.5q64 0 106.5 -22t64 -65t21.5 -106v-116h-232v-111q0 -22 5 -36t14 -20t21 -6t21.5 5.5t14.5 17.5t5 33v61h151v-56q0 -88 -51 -132.5t-141 -44.5z
M244 280q-74 0 -119.5 12.5t-69.5 36t-31 56.5t-5 73h141q-2 -38 5 -60.5t27 -32.5t54 -10h30v-75h-32zM385 355h81v58q0 23 -5.5 36t-14.5 18t-22 5q-12 0 -20.5 -6t-13.5 -20.5t-5 -41.5v-49zM462 662v148h130v-148h-130zM244 662v148h130v-148h-130z" />
    <glyph glyph-name="uni04C0" unicode="&#x4c0;" horiz-adv-x="301" 
d="M61 0v810h179v-810h-179z" />
    <glyph glyph-name="uni04C1" unicode="&#x4c1;" horiz-adv-x="795" 
d="M6 0l170 407l-166 403h167l141 -379h8v379h142v-379h9l141 379h167l-166 -403l170 -407h-160l-152 393h-9v-393h-142v393h-8l-152 -393h-160zM397 875q-71 0 -114 40t-43 116h92q0 -37 14.5 -55t50.5 -18q35 0 50 18.5t15 54.5h92q0 -76 -43 -116t-114 -40z" />
    <glyph glyph-name="uni04C2" unicode="&#x4c2;" horiz-adv-x="660" 
d="M7 0l115 291l-108 287h141l92 -274h12v274h136v-274h11l98 274h143l-115 -287l121 -291h-135l-112 279h-11v-279h-136v279h-12l-105 -279h-135zM329 643q-71 0 -114 40t-43 116h92q0 -37 14.5 -55t50.5 -18q35 0 50 18.5t15 54.5h92q0 -76 -43 -116t-114 -40z" />
    <glyph glyph-name="uni04C3" unicode="&#x4c3;" horiz-adv-x="600" 
d="M352 -166q-30 0 -40 1t-19 3v100q8 0 14.5 1t12.5 3q15 4 23.5 12t12.5 21t4 29v240q0 43 -15 67t-38.5 34.5t-49.5 10.5h-15v-356h-179v810h179v-321h18l119 321h178l-148 -380q31 -12 60.5 -35t48.5 -65.5t19 -114.5v-217q0 -45 -19.5 -82t-60 -59.5t-105.5 -22.5z" />
    <glyph glyph-name="uni04C4" unicode="&#x4c4;" horiz-adv-x="541" 
d="M299 -169q-15 0 -29.5 1.5t-28.5 2.5v96h15q25 0 37.5 11t17 30.5t4.5 42.5v138q0 39 -22 71t-58 32h-21v-256h-163v578h163v-228h24l88 228h175l-114 -273q44 -22 67.5 -59.5t23.5 -93.5v-148q0 -57 -17 -95.5t-56.5 -58t-105.5 -19.5z" />
    <glyph glyph-name="uni04C5" unicode="&#x4c5;" horiz-adv-x="684" 
d="M7 0v126q34 0 55 4.5t33 21.5t19 52t11.5 94t11.5 150l26 362h429v-810h-178v673h-89l-16 -259q-7 -100 -14 -172.5t-22.5 -121.5t-46 -76.5t-83.5 -37.5t-136 -6zM490 -160l45 281h140l-67 -281h-118z" />
    <glyph glyph-name="uni04C6" unicode="&#x4c6;" horiz-adv-x="596" 
d="M13 -6v115q32 0 52.5 10t33 34.5t19.5 67t12 108.5l19 249h367v-578h-163v468h-66l-14 -171q-7 -90 -20 -149t-38 -92.5t-67 -47.5t-107 -14h-28zM421 -160l45 260h128l-62 -260h-111z" />
    <glyph glyph-name="uni04C7" unicode="&#x4c7;" horiz-adv-x="610" 
d="M361 -166q-31 0 -41 1t-19 3v100q5 0 11 1t10 2q17 3 26.5 11t14 21.5t4.5 30.5v350h-125v-354h-179v810h179v-328h125v328h180v-812q0 -45 -20 -82t-61 -59.5t-105 -22.5z" />
    <glyph glyph-name="uni04C8" unicode="&#x4c8;" horiz-adv-x="525" 
d="M295 -169q-15 0 -29.5 1.5t-28.5 2.5v96h16q25 0 37 11t16.5 30.5t4.5 42.5v227h-97v-242h-163v578h163v-224h97v224h163v-574q0 -57 -17 -95.5t-56.5 -58t-105.5 -19.5z" />
    <glyph glyph-name="uni04C9" unicode="&#x4c9;" horiz-adv-x="639" 
d="M63 0v810h179v-328h125v328h180v-810h-180v354h-125v-354h-179zM445 -160l45 281h140l-67 -281h-118z" />
    <glyph glyph-name="uni04CA" unicode="&#x4ca;" horiz-adv-x="555" 
d="M380 -160l44 260h129l-63 -260h-110zM51 0v578h163v-224h97v224h164v-578h-164v242h-97v-242h-163z" />
    <glyph glyph-name="uni04CB" unicode="&#x4cb;" horiz-adv-x="609" 
d="M367 0v333q-50 -7 -98 -7q-58 0 -109.5 22.5t-83.5 66t-32 106.5v289h179v-288q0 -25 5.5 -44.5t26 -30.5t64.5 -11q11 0 23 1t25 3v370h179v-810h-179zM284 -160v281h139l-25 -281h-114zM368 0v121h160v-121h-160z" />
    <glyph glyph-name="uni04CC" unicode="&#x4cc;" horiz-adv-x="496" 
d="M282 0v233q-13 -1 -26.5 -2t-26.5 -1q-74 0 -115.5 17.5t-58 50t-16.5 77.5v203h162v-193q0 -31 12 -46t49 -17q5 0 9.5 0.5t10.5 0.5v255h163v-578h-163zM312 -160h-110v260h128z" />
    <glyph glyph-name="uni04CD" unicode="&#x4cd;" horiz-adv-x="736" 
d="M57 0l14 810h192l89 -471l96 471h185l14 -810h-127l-15 539l-94 -539h-113l-100 543l-12 -543h-129zM540 -160l45 281h140l-67 -281h-118z" />
    <glyph glyph-name="uni04CE" unicode="&#x4ce;" horiz-adv-x="611" 
d="M50 0l2 578h120l118 -277l119 277h120l2 -578h-127v304l-89 -214h-48l-90 215v-305h-127zM436 -160l44 260h128l-62 -260h-110z" />
    <glyph glyph-name="uni04CF" unicode="&#x4cf;" horiz-adv-x="273" 
d="M58 0v810h162v-810h-162z" />
    <glyph glyph-name="uni04D0" unicode="&#x4d0;" horiz-adv-x="551" 
d="M21 0l153 810h204l151 -810h-165l-27 171h-119l-28 -171h-169zM234 278h86l-43 316zM275 875q-71 0 -114 40t-43 116h92q0 -37 14.5 -55t50.5 -18q35 0 50 18.5t15 54.5h92q0 -76 -43 -116t-114 -40z" />
    <glyph glyph-name="uni04D1" unicode="&#x4d1;" horiz-adv-x="460" 
d="M154 -10q-44 0 -74 21t-45 53.5t-15 66.5q0 54 21.5 91t56.5 62t77 42.5t83 31.5v58q0 15 -3 26.5t-10 18t-21 6.5t-21.5 -6t-10.5 -16.5t-4 -23.5l-4 -42l-152 6q5 104 55.5 153.5t151.5 49.5q88 0 131.5 -48.5t43.5 -125.5v-270q0 -36 1.5 -63t4 -47t4.5 -34h-146
q-3 23 -7 50t-6 32q-10 -36 -37.5 -64t-73.5 -28zM212 100q10 0 18.5 4t15.5 11t12 14v158q-20 -12 -37 -24.5t-29 -27.5t-18.5 -32.5t-6.5 -39.5q0 -29 12 -46t33 -17zM237 643q-71 0 -114 40t-43 116h92q0 -37 14.5 -55t50.5 -18q35 0 50 18.5t15 54.5h92q0 -76 -43 -116
t-114 -40z" />
    <glyph glyph-name="uni04D2" unicode="&#x4d2;" horiz-adv-x="551" 
d="M21 0l153 810h204l151 -810h-165l-27 171h-119l-28 -171h-169zM234 278h86l-43 316zM320 894v148h130v-148h-130zM102 894v148h130v-148h-130z" />
    <glyph glyph-name="uni04D3" unicode="&#x4d3;" horiz-adv-x="460" 
d="M154 -10q-44 0 -74 21t-45 53.5t-15 66.5q0 54 21.5 91t56.5 62t77 42.5t83 31.5v58q0 15 -3 26.5t-10 18t-21 6.5t-21.5 -6t-10.5 -16.5t-4 -23.5l-4 -42l-152 6q5 104 55.5 153.5t151.5 49.5q88 0 131.5 -48.5t43.5 -125.5v-270q0 -36 1.5 -63t4 -47t4.5 -34h-146
q-3 23 -7 50t-6 32q-10 -36 -37.5 -64t-73.5 -28zM212 100q10 0 18.5 4t15.5 11t12 14v158q-20 -12 -37 -24.5t-29 -27.5t-18.5 -32.5t-6.5 -39.5q0 -29 12 -46t33 -17zM282 662v148h130v-148h-130zM64 662v148h130v-148h-130z" />
    <glyph glyph-name="uni04D4" unicode="&#x4d4;" horiz-adv-x="708" 
d="M-13 0l353 810h349v-122h-170v-200h120v-126h-120v-240h170v-122h-323v173h-131l-69 -173h-179zM271 286h95v259z" />
    <glyph glyph-name="uni04D5" unicode="&#x4d5;" horiz-adv-x="678" 
d="M189 -12q-70 0 -111.5 39t-41.5 106q0 57 24 93t63.5 57t85.5 32l60 14v81q0 32 -8.5 44.5t-25.5 12.5q-13 0 -21.5 -7.5t-13 -25.5t-4.5 -52l-158 5q0 97 43.5 149t137.5 52q61 0 94.5 -25t38.5 -60h-17q3 24 23 43t52.5 30.5t71.5 11.5q81 0 119.5 -39.5t38.5 -99.5
q0 -48 -19.5 -78t-53.5 -47t-77 -27l-66 -15v-114q0 -30 5.5 -47t25.5 -17q14 0 20 7.5t8 21.5t2 31v38h150v-47q0 -53 -18.5 -90.5t-55 -57t-90.5 -19.5q-29 0 -58 10.5t-50 32t-28 52.5q-11 -31 -34 -52t-52 -32t-60 -11zM225 98q14 0 23.5 6.5t15 20t5.5 35.5v97l-31 -13
q-21 -9 -34 -21.5t-19 -28t-6 -36.5q0 -17 5 -30.5t15 -21.5t26 -8zM423 356l16 3q34 7 50 22t16 43q0 20 -9.5 33t-29.5 13q-15 0 -24.5 -6.5t-14 -18.5t-4.5 -31v-58z" />
    <glyph glyph-name="uni04D6" unicode="&#x4d6;" horiz-adv-x="447" 
d="M60 0v810h364v-122h-185v-201h141v-124h-141v-242h187v-121h-366zM243 875q-71 0 -114 40t-43 116h92q0 -37 14.5 -55t50.5 -18q35 0 50 18.5t15 54.5h92q0 -76 -43 -116t-114 -40z" />
    <glyph glyph-name="uni04D7" unicode="&#x4d7;" horiz-adv-x="470" 
d="M240 -10q-63 0 -108 22.5t-69 66t-24 104.5v212q0 62 24 105t69.5 65.5t107.5 22.5q64 0 106.5 -22t64 -65t21.5 -106v-116h-232v-111q0 -22 5 -36t14 -20t21 -6t21.5 5.5t15 17.5t5.5 33v61h150v-56q0 -88 -51 -132.5t-141 -44.5zM200 355h82v58q0 23 -5.5 36t-15 18
t-22.5 5q-12 0 -20.5 -6t-13.5 -20.5t-5 -41.5v-49zM237 643q-71 0 -114 40t-43 116h92q0 -37 14.5 -55t50.5 -18q35 0 50 18.5t15 54.5h92q0 -76 -43 -116t-114 -40z" />
    <glyph glyph-name="uni04D8" unicode="&#x4d8;" horiz-adv-x="582" 
d="M291 -12q-78 0 -133 28t-84 83.5t-29 136.5v185h305v185q0 33 -7 52.5t-20.5 28t-34.5 8.5q-19 0 -32.5 -8.5t-20.5 -28t-7 -52.5v-115h-183v83q0 82 29 136.5t84.5 82.5t132.5 28q75 0 129 -30.5t83.5 -88t29.5 -138.5v-320q0 -81 -29.5 -138.5t-83.5 -87.5t-129 -30z
M289 114q21 0 34.5 9t20 28.5t6.5 50.5v111h-122v-111q0 -31 6.5 -50.5t20.5 -28.5t34 -9z" />
    <glyph glyph-name="uni04D9" unicode="&#x4d9;" horiz-adv-x="470" 
d="M230 -12q-64 0 -106.5 22t-64 65t-21.5 106v116h231v112q0 21 -4.5 35t-13 21t-21.5 7q-12 0 -21.5 -5t-15 -17.5t-5.5 -33.5v-61h-150v57q0 87 51 131.5t141 44.5q63 0 108 -22.5t69 -65.5t24 -105v-213q0 -62 -24 -105.5t-69 -66t-108 -22.5zM230 104q13 0 21.5 6
t13 21t4.5 41v49h-81v-57q0 -23 5.5 -36t15 -18.5t21.5 -5.5z" />
    <glyph glyph-name="uni04DA" unicode="&#x4da;" horiz-adv-x="582" 
d="M291 -12q-78 0 -133 28t-84 83.5t-29 136.5v185h305v185q0 33 -7 52.5t-20.5 28t-34.5 8.5q-19 0 -32.5 -8.5t-20.5 -28t-7 -52.5v-115h-183v83q0 82 29 136.5t84.5 82.5t132.5 28q75 0 129 -30.5t83.5 -88t29.5 -138.5v-320q0 -81 -29.5 -138.5t-83.5 -87.5t-129 -30z
M289 114q21 0 34.5 9t20 28.5t6.5 50.5v111h-122v-111q0 -31 6.5 -50.5t20.5 -28.5t34 -9zM335 894v148h130v-148h-130zM117 894v148h130v-148h-130z" />
    <glyph glyph-name="uni04DB" unicode="&#x4db;" horiz-adv-x="470" 
d="M230 -12q-64 0 -106.5 22t-64 65t-21.5 106v116h231v112q0 21 -4.5 35t-13 21t-21.5 7q-12 0 -21.5 -5t-15 -17.5t-5.5 -33.5v-61h-150v57q0 87 51 131.5t141 44.5q63 0 108 -22.5t69 -65.5t24 -105v-213q0 -62 -24 -105.5t-69 -66t-108 -22.5zM230 104q13 0 21.5 6
t13 21t4.5 41v49h-81v-57q0 -23 5.5 -36t15 -18.5t21.5 -5.5zM279 662v148h130v-148h-130zM61 662v148h130v-148h-130z" />
    <glyph glyph-name="uni04DC" unicode="&#x4dc;" horiz-adv-x="795" 
d="M6 0l170 407l-166 403h167l141 -379h8v379h142v-379h9l141 379h167l-166 -403l170 -407h-160l-152 393h-9v-393h-142v393h-8l-152 -393h-160zM442 894v148h130v-148h-130zM224 894v148h130v-148h-130z" />
    <glyph glyph-name="uni04DD" unicode="&#x4dd;" horiz-adv-x="660" 
d="M7 0l115 291l-108 287h141l92 -274h12v274h136v-274h11l98 274h143l-115 -287l121 -291h-135l-112 279h-11v-279h-136v279h-12l-105 -279h-135zM374 662v148h130v-148h-130zM156 662v148h130v-148h-130z" />
    <glyph glyph-name="uni04DE" unicode="&#x4de;" horiz-adv-x="526" 
d="M266 -15q-85 0 -133.5 32t-69 89.5t-20.5 132.5v29h168v-12v-19q0 -60 12 -85.5t46 -25.5q23 0 34.5 12t16 35.5t4.5 59.5q0 61 -18 92.5t-75 32.5q-1 1 -8.5 1h-17.5h-19v109h14h14h13q59 1 78 32t19 92q0 47 -14.5 72t-48.5 25q-33 0 -45.5 -26.5t-13.5 -70.5v-16.5
v-28.5h-168v49q0 73 28.5 123.5t79.5 76.5t120 26q71 0 121.5 -25t77.5 -73.5t27 -120.5q0 -71 -29 -119.5t-70 -59.5q28 -11 50.5 -32.5t35.5 -58.5t13 -95q0 -74 -21.5 -131.5t-70.5 -89.5t-130 -32zM307 894v148h130v-148h-130zM89 894v148h130v-148h-130z" />
    <glyph glyph-name="uni04DF" unicode="&#x4df;" horiz-adv-x="450" 
d="M223 -11q-60 0 -96.5 16.5t-56 45t-26 65t-6.5 76.5h129q0 -46 14.5 -68.5t45.5 -22.5q23 0 35 10t16.5 28t4.5 40q0 29 -10.5 46t-34 24.5t-63.5 7.5v84q60 0 78.5 16t18.5 56q0 29 -11.5 46t-40.5 17q-31 0 -43.5 -17.5t-12.5 -61.5h-128q0 52 16 95.5t57.5 69.5
t118.5 26q68 0 110.5 -21.5t62 -58t19.5 -82.5q0 -38 -12 -64t-31 -40.5t-42 -21.5q25 -9 44.5 -24t31.5 -42.5t12 -74.5q0 -73 -47 -121.5t-153 -48.5zM269 662v148h130v-148h-130zM51 662v148h130v-148h-130z" />
    <glyph glyph-name="uni04E0" unicode="&#x4e0;" horiz-adv-x="503" 
d="M247 -15q-85 0 -134 32t-69.5 89.5t-20.5 132.5v29h167v-11v-18q0 -69 12.5 -98t46.5 -29q17 0 27.5 7.5t16.5 22t8 38t2 54.5q0 59 -8.5 94t-32.5 51t-72 16h-87v89l152 205h-208v121h388v-101l-194 -254l-39 38h64q82 0 125.5 -33t60 -90.5t16.5 -131.5t-21.5 -131
t-70 -89.5t-129.5 -32.5z" />
    <glyph glyph-name="uni04E1" unicode="&#x4e1;" horiz-adv-x="485" 
d="M238 -205q-81 0 -128 32.5t-67.5 90t-20.5 132.5v29h160v-11v-18q0 -77 12 -109t46 -32q23 0 35 14.5t16 44.5t4 76q0 62 -8.5 98.5t-32 52.5t-69.5 16h-64v95l149 187l20 -34h-233v119h356v-99l-175 -218l-49 36h49q87 0 134.5 -29t66.5 -84.5t19 -134.5
q0 -74 -21 -131.5t-69.5 -90t-129.5 -32.5z" />
    <glyph glyph-name="uni04E2" unicode="&#x4e2;" horiz-adv-x="590" 
d="M63 0v810h141v-464l207 464h116v-810h-144v472l-211 -472h-109zM170 898v77h276v-77h-276z" />
    <glyph glyph-name="uni04E3" unicode="&#x4e3;" horiz-adv-x="508" 
d="M51 0v578h129v-309l151 309h127v-578h-132v306l-147 -306h-128zM118 666v77h276v-77h-276z" />
    <glyph glyph-name="uni04E4" unicode="&#x4e4;" horiz-adv-x="590" 
d="M63 0v810h141v-464l207 464h116v-810h-144v472l-211 -472h-109zM352 894v148h130v-148h-130zM134 894v148h130v-148h-130z" />
    <glyph glyph-name="uni04E5" unicode="&#x4e5;" horiz-adv-x="508" 
d="M51 0v578h129v-309l151 309h127v-578h-132v306l-147 -306h-128zM300 662v148h130v-148h-130zM82 662v148h130v-148h-130z" />
    <glyph glyph-name="uni04E6" unicode="&#x4e6;" 
d="M292 -12q-91 0 -144 32t-76 92t-23 143v301q0 84 23 143t76 90.5t144 31.5q92 0 145.5 -31.5t76.5 -90.5t23 -143v-301q0 -83 -23 -143t-76.5 -92t-145.5 -32zM292 115q28 0 41 14t17 36t4 45v390q0 24 -4 45.5t-17 35.5t-41 14q-26 0 -39 -14t-17 -35.5t-4 -45.5v-390
q0 -23 3.5 -45t16 -36t40.5 -14zM337 894v148h130v-148h-130zM119 894v148h130v-148h-130z" />
    <glyph glyph-name="uni04E7" unicode="&#x4e7;" horiz-adv-x="483" 
d="M241 -10q-62 0 -107.5 21t-70 63t-24.5 105v220q0 63 24.5 105t70 63t107.5 21t107.5 -21t70.5 -63t25 -105v-220q0 -63 -25 -105t-70.5 -63t-107.5 -21zM242 98q16 0 25 8.5t12.5 24t3.5 37.5v242q0 22 -3.5 37.5t-12.5 24t-25 8.5t-25 -8.5t-13 -24t-4 -37.5v-242
q0 -22 4 -37.5t13 -24t25 -8.5zM285 662v148h130v-148h-130zM67 662v148h130v-148h-130z" />
    <glyph glyph-name="uni04E8" unicode="&#x4e8;" 
d="M139 365v110h303v-110h-303zM292 -12q-91 0 -144 32t-76 92t-23 143v301q0 84 23 143t76 90.5t144 31.5q92 0 145.5 -31.5t76.5 -90.5t23 -143v-301q0 -83 -23 -143t-76.5 -92t-145.5 -32zM292 115q28 0 41 14t17 36t4 45v390q0 24 -4 45.5t-17 35.5t-41 14
q-26 0 -39 -14t-17 -35.5t-4 -45.5v-390q0 -23 3.5 -45t16 -36t40.5 -14z" />
    <glyph glyph-name="uni04E9" unicode="&#x4e9;" horiz-adv-x="483" 
d="M122 254v78h245v-78h-245zM241 -10q-62 0 -107.5 21t-70 63t-24.5 105v220q0 63 24.5 105t70 63t107.5 21t107.5 -21t70.5 -63t25 -105v-220q0 -63 -25 -105t-70.5 -63t-107.5 -21zM242 98q16 0 25 8.5t12.5 24t3.5 37.5v242q0 22 -3.5 37.5t-12.5 24t-25 8.5t-25 -8.5
t-13 -24t-4 -37.5v-242q0 -22 4 -37.5t13 -24t25 -8.5z" />
    <glyph glyph-name="uni04EA" unicode="&#x4ea;" 
d="M139 365v110h303v-110h-303zM292 -12q-91 0 -144 32t-76 92t-23 143v301q0 84 23 143t76 90.5t144 31.5q92 0 145.5 -31.5t76.5 -90.5t23 -143v-301q0 -83 -23 -143t-76.5 -92t-145.5 -32zM292 115q28 0 41 14t17 36t4 45v390q0 24 -4 45.5t-17 35.5t-41 14
q-26 0 -39 -14t-17 -35.5t-4 -45.5v-390q0 -23 3.5 -45t16 -36t40.5 -14zM337 894v148h130v-148h-130zM119 894v148h130v-148h-130z" />
    <glyph glyph-name="uni04EB" unicode="&#x4eb;" horiz-adv-x="483" 
d="M122 254v78h245v-78h-245zM241 -10q-62 0 -107.5 21t-70 63t-24.5 105v220q0 63 24.5 105t70 63t107.5 21t107.5 -21t70.5 -63t25 -105v-220q0 -63 -25 -105t-70.5 -63t-107.5 -21zM242 98q16 0 25 8.5t12.5 24t3.5 37.5v242q0 22 -3.5 37.5t-12.5 24t-25 8.5t-25 -8.5
t-13 -24t-4 -37.5v-242q0 -22 4 -37.5t13 -24t25 -8.5zM285 662v148h130v-148h-130zM67 662v148h130v-148h-130z" />
    <glyph glyph-name="uni04EC" unicode="&#x4ec;" horiz-adv-x="575" 
d="M283 -10q-89 0 -140 30t-72 83t-21 121v43h175v-53q0 -24 2.5 -46.5t15 -36.5t40.5 -14t41 14.5t16.5 38t3.5 48.5v142h-134v90h134v148q0 28 -4.5 50.5t-17.5 35.5t-39 13q-28 0 -40 -14.5t-15 -37t-3 -47.5v-56h-175v40q0 69 20.5 124t71.5 86.5t141 31.5
q93 0 146 -33.5t75 -94t22 -143.5v-291q0 -84 -22 -145t-75 -94t-146 -33zM332 894v148h130v-148h-130zM114 894v148h130v-148h-130z" />
    <glyph glyph-name="uni04ED" unicode="&#x4ed;" horiz-adv-x="476" 
d="M237 -10q-61 0 -104.5 19t-67 57.5t-23.5 96.5v30h157v-31q0 -34 10 -45.5t28 -11.5q13 0 21 6t12 21t4 41v78h-133v69h133v86q0 26 -4.5 40.5t-12.5 20t-20 5.5q-19 0 -28.5 -12.5t-9.5 -44.5v-41h-157v39q0 58 23.5 97t67.5 58.5t104 19.5q64 0 108.5 -23t68 -66
t23.5 -104v-213q0 -61 -23.5 -104t-68.5 -65.5t-108 -22.5zM283 662v148h130v-148h-130zM65 662v148h130v-148h-130z" />
    <glyph glyph-name="uni04EE" unicode="&#x4ee;" horiz-adv-x="554" 
d="M53 -163v123q14 -1 26.5 -1.5t23.5 -0.5q24 0 43.5 4t33.5 12.5t21.5 23t7.5 35.5q0 15 -1.5 26.5t-3.5 22.5l-182 728h166l70 -333l33 -217l24 218l59 332h168l-166 -745q-14 -64 -34 -108.5t-49 -71.5t-70.5 -39t-100.5 -12q-15 0 -32 1t-37 2zM139 898v77h276v-77
h-276z" />
    <glyph glyph-name="uni04EF" unicode="&#x4ef;" horiz-adv-x="448" 
d="M67 -168v113q31 0 51.5 4t31 15t10.5 30q0 17 -6 41.5t-15 55.5l-136 487h153l73 -334l55 334h154l-133 -592q-13 -60 -41 -93.5t-68.5 -47t-91.5 -13.5h-37zM97 666v77h276v-77h-276z" />
    <glyph glyph-name="uni04F0" unicode="&#x4f0;" horiz-adv-x="554" 
d="M53 -163v123q14 -1 26.5 -1.5t23.5 -0.5q24 0 43.5 4t33.5 12.5t21.5 23t7.5 35.5q0 15 -1.5 26.5t-3.5 22.5l-182 728h166l70 -333l33 -217l24 218l59 332h168l-166 -745q-14 -64 -34 -108.5t-49 -71.5t-70.5 -39t-100.5 -12q-15 0 -32 1t-37 2zM321 894v148h130v-148
h-130zM103 894v148h130v-148h-130z" />
    <glyph glyph-name="uni04F1" unicode="&#x4f1;" horiz-adv-x="448" 
d="M67 -168v113q31 0 51.5 4t31 15t10.5 30q0 17 -6 41.5t-15 55.5l-136 487h153l73 -334l55 334h154l-133 -592q-13 -60 -41 -93.5t-68.5 -47t-91.5 -13.5h-37zM279 662v148h130v-148h-130zM61 662v148h130v-148h-130z" />
    <glyph glyph-name="uni04F2" unicode="&#x4f2;" horiz-adv-x="554" 
d="M53 -163v123q14 -1 26.5 -1.5t23.5 -0.5q24 0 43.5 4t33.5 12.5t21.5 23t7.5 35.5q0 15 -1.5 26.5t-3.5 22.5l-182 728h166l70 -333l33 -217l24 218l59 332h168l-166 -745q-14 -64 -34 -108.5t-49 -71.5t-70.5 -39t-100.5 -12q-15 0 -32 1t-37 2zM319 865l64 216h140
l-120 -216h-84zM141 865l60 216h132l-108 -216h-84z" />
    <glyph glyph-name="uni04F3" unicode="&#x4f3;" horiz-adv-x="448" 
d="M67 -168v113q31 0 51.5 4t31 15t10.5 30q0 17 -6 41.5t-15 55.5l-136 487h153l73 -334l55 334h154l-133 -592q-13 -60 -41 -93.5t-68.5 -47t-91.5 -13.5h-37zM277 633l64 216h140l-120 -216h-84zM99 633l60 216h132l-108 -216h-84z" />
    <glyph glyph-name="uni04F4" unicode="&#x4f4;" horiz-adv-x="609" 
d="M368 0v335q-27 -5 -47 -7t-43 -2q-107 0 -170 51.5t-63 156.5v276h179v-237q0 -50 8 -80.5t28 -43.5t54 -13q11 0 26 2t28 5v367h179v-810h-179zM349 894v148h130v-148h-130zM131 894v148h130v-148h-130z" />
    <glyph glyph-name="uni04F5" unicode="&#x4f5;" horiz-adv-x="496" 
d="M282 0v233q-13 -1 -26.5 -2t-26.5 -1q-74 0 -115.5 17.5t-58 50t-16.5 77.5v203h162v-193q0 -31 12 -46t49 -17q5 0 9.5 0.5t10.5 0.5v255h163v-578h-163zM292 662v148h130v-148h-130zM74 662v148h130v-148h-130z" />
    <glyph glyph-name="uni04F6" unicode="&#x4f6;" horiz-adv-x="463" 
d="M63 0v810h375v-133h-196v-677h-179zM211 -160l-25 281h138v-281h-113zM133 121h148v-121h-148v121z" />
    <glyph glyph-name="uni04F7" unicode="&#x4f7;" horiz-adv-x="352" 
d="M51 0v578h288v-110h-125v-468h-163zM182 -160l-18 260h128v-260h-110z" />
    <glyph glyph-name="uni04F8" unicode="&#x4f8;" horiz-adv-x="831" 
d="M63 0v810h179v-342h40q77 0 130.5 -25t81 -76.5t27.5 -132.5q0 -74 -19.5 -120t-54.5 -71t-81 -34t-100 -9h-203zM242 117h25q34 0 53.5 13t28 40t7.5 68q-1 45 -19 75.5t-72 30.5h-23v-227zM589 0v810h179v-810h-179zM460 894v148h130v-148h-130zM242 894v148h130v-148
h-130z" />
    <glyph glyph-name="uni04F9" unicode="&#x4f9;" horiz-adv-x="740" 
d="M51 0v578h163v-232h1.5h1.5h2q60 0 106 -8.5t76.5 -28t46.5 -52.5t16 -83q0 -47 -13.5 -80t-43 -54t-76 -30.5t-111.5 -9.5h-169zM214 93h3q37 0 58.5 7.5t31 25t9.5 46.5q0 31 -9.5 47.5t-31 23.5t-56.5 7h-2.5h-2.5v-157zM526 0v578h163v-578h-163zM414 662v148h130
v-148h-130zM196 662v148h130v-148h-130z" />
    <glyph glyph-name="uni04FA" unicode="&#x4fa;" horiz-adv-x="503" 
d="M101 0v810h377v-121h-198v-689h-179zM182 -166q-25 0 -40.5 1.5t-25.5 2.5v101q47 0 64 15t17 46v103h172v-103q0 -74 -46 -120t-141 -46zM26 377v113h383v-113h-383z" />
    <glyph glyph-name="uni04FB" unicode="&#x4fb;" horiz-adv-x="386" 
d="M72 0v578h289v-121h-126v-457h-163zM132 -169q-15 0 -29.5 1.5t-28.5 2.5v96h16q25 0 37.5 11t17 30.5t4.5 42.5v45h162v-56q0 -57 -17.5 -95.5t-57 -58t-104.5 -19.5zM8 241v103h325v-103h-325z" />
    <glyph glyph-name="uni04FC" unicode="&#x4fc;" horiz-adv-x="531" 
d="M326 -166q-32 0 -46.5 1.5t-24.5 2.5v100q6 -1 12 -1h10q29 0 42 11t16.5 27t3.5 32q0 17 -9.5 46t-24 64t-30.5 69t-29 61l-91 -247h-148l157 436l-150 374h169l89 -219l72 219h149l-142 -421q17 -37 38 -78.5t42 -84.5t38 -84.5t27.5 -78.5t10.5 -66q0 -44 -19 -81.5
t-58.5 -59.5t-103.5 -22z" />
    <glyph glyph-name="uni04FD" unicode="&#x4fd;" horiz-adv-x="449" 
d="M424 -16q0 -35 -10.5 -63t-32.5 -48t-57 -31t-83 -11q-13 0 -27 1t-30 2v97h15q27 0 40.5 10.5t18.5 24.5t5 25q0 23 -10 55t-23.5 63.5t-23.5 52.5l-60 -162h-135l123 317l-117 261h164l62 -139l55 139h125l-114 -285q15 -30 35 -69t38 -81.5t30 -83.5t12 -75z" />
    <glyph glyph-name="uni04FE" unicode="&#x4fe;" horiz-adv-x="515" 
d="M36 373v112h446v-112h-446zM7 0l157 436l-150 374h169l89 -219l72 219h149l-142 -421l158 -389h-168l-99 242l-87 -242h-148z" />
    <glyph glyph-name="uni04FF" unicode="&#x4ff;" horiz-adv-x="450" 
d="M27 253v104h388v-104h-388zM11 0l123 317l-117 261h164l62 -139l55 139h125l-114 -285l131 -293h-166l-70 159l-58 -159h-135z" />
    <glyph glyph-name="uni0510" unicode="&#x510;" horiz-adv-x="526" 
d="M260 -15q-81 0 -129.5 32t-70.5 89.5t-22 131.5q0 58 13 95t35.5 58.5t50.5 32.5q-41 11 -70 59.5t-29 119.5q0 72 27 120.5t78 73.5t121 25q69 0 120.5 -26t79.5 -76.5t28 -123.5v-49h-168v28.5v16.5q-1 44 -13.5 70.5t-45.5 26.5q-34 0 -48.5 -25t-14.5 -72
q0 -61 19.5 -92t77.5 -32h14h14h13v-109h-19h-17t-9 -1q-57 -1 -75 -32.5t-18 -92.5q0 -36 4.5 -59.5t16.5 -35.5t34 -12q34 0 46 25.5t12 85.5v19v12h168v-29q0 -75 -20.5 -132.5t-69 -89.5t-133.5 -32z" />
    <glyph glyph-name="uni0511" unicode="&#x511;" horiz-adv-x="450" 
d="M227 -11q-106 0 -153 48.5t-47 121.5q0 47 12 74.5t32 42.5t44 24q-22 7 -41.5 21.5t-31.5 40.5t-12 64q0 46 19.5 82.5t62 58t110.5 21.5q77 0 118.5 -26t57.5 -69.5t16 -95.5h-128q0 44 -12.5 61.5t-43.5 17.5q-28 0 -40 -17t-12 -46q0 -40 18.5 -56t78.5 -16v-84
q-40 0 -63.5 -7.5t-34 -24.5t-10.5 -46q0 -22 4.5 -40t17 -28t34.5 -10q31 0 45.5 22.5t14.5 68.5h129q0 -40 -6.5 -76.5t-26 -65t-56 -45t-96.5 -16.5z" />
    <glyph glyph-name="uni0512" unicode="&#x512;" horiz-adv-x="656" 
d="M405 -166q-19 0 -34.5 1t-24.5 3v100q8 0 15 1.5t13 3.5q14 4 23 12t13 20.5t4 28.5v669h-89l-16 -259q-6 -91 -14 -160.5t-22 -118t-38.5 -79.5t-65 -45t-100.5 -14q-14 0 -29.5 1t-32.5 2v126q30 0 50 4.5t33 21.5t21 52t13.5 94t12.5 150l26 362h429v-812
q0 -45 -20 -82t-61 -59.5t-106 -22.5z" />
    </font>
</defs>
</svg>
